<?xml version="1.0" standalone="no"?>
<!DOCTYPE svg PUBLIC "-//W3C//DTD SVG 1.1//EN" "http://www.w3.org/Graphics/SVG/1.1/DTD/svg11.dtd" >
<svg xmlns="http://www.w3.org/2000/svg" xmlns:xlink="http://www.w3.org/1999/xlink" version="1.1">
<metadata>
Created by FontForge 20200314 at Thu Mar 31 22:47:19 2016
 By Unknown
Copyright (c) 2006 by Bitstream Inc. All rights reserved.
</metadata>
<defs>
<font id="NewLincolnGothicBTW03-Md" horiz-adv-x="538" >
  <font-face 
    font-family="NewLincolnGothicBTW03-Md"
    font-weight="500"
    font-stretch="normal"
    units-per-em="1000"
    panose-1="2 14 6 3 5 5 3 2 2 7"
    ascent="800"
    descent="-200"
    x-height="507"
    cap-height="690"
    bbox="-182 -259 1298 991"
    underline-thickness="50"
    underline-position="-125"
    unicode-range="U+0020-FB02"
  />
<missing-glyph horiz-adv-x="284" 
 />
    <glyph glyph-name="uniFB01" unicode="fi" horiz-adv-x="521" 
d="M456 0h-91q4 18 4 75v361h-204v-378q0 -25 5 -58h-92q5 22 5 57v379h-65v71h65v68q0 73 49.5 117.5t125.5 44.5q22 0 66 -3.5t62 -3.5v-78q-11 4 -38 9t-70 5q-51 0 -81.5 -24t-30.5 -74v-61h214q50 0 76 4q-4 -25 -4 -76v-360q0 -54 4 -75z" />
    <glyph glyph-name="uniFB02" unicode="fl" horiz-adv-x="526" 
d="M465 0h-97q8 13 8 74v579q-42 13 -98 13q-49 0 -80.5 -23t-31.5 -75v-61h72q17 0 42.5 1.5t28.5 4.5v-85q-2 3 -23.5 5.5t-52.5 2.5h-68v-378q0 -25 5 -58h-92q5 22 5 57v379h-65v71h65v69q0 45 20.5 80.5t59.5 58t93 22.5q29 0 70 -3t60 -3q25 0 71 6v-663q0 -63 8 -74z
" />
    <glyph glyph-name=".notdef" horiz-adv-x="284" 
 />
    <glyph glyph-name=".null" horiz-adv-x="0" 
 />
    <glyph glyph-name="nonmarkingreturn" horiz-adv-x="333" 
 />
    <glyph glyph-name="space" unicode=" " horiz-adv-x="284" 
 />
    <glyph glyph-name="exclam" unicode="!" horiz-adv-x="286" 
d="M197 690q-5 -44 -6 -99l-6 -435h-83l-6 435q0 54 -7 99h108zM186 0h-86v85h86v-85z" />
    <glyph glyph-name="quotedbl" unicode="&#x22;" horiz-adv-x="279" 
d="M237 501h-68v189h68v-189zM110 501h-68v189h68v-189z" />
    <glyph glyph-name="numbersign" unicode="#" horiz-adv-x="540" 
d="M515 481l-16 -62h-89l-29 -147h90l-15 -62h-86l-42 -210h-64l41 210h-121l-42 -210h-64l40 210h-92l15 62h89l29 147h-90l15 62h87l40 209h66l-41 -209h121l40 209h66l-41 -209h93zM346 419h-122l-29 -147h121z" />
    <glyph glyph-name="dollar" unicode="$" horiz-adv-x="599" 
d="M264 -121v121q-44 4 -89.5 22t-81.5 40v95q92 -70 171 -84v240l-8 2q-36 7 -69 21t-56 35.5t-35.5 52t-12.5 69.5q0 89 48.5 138.5t132.5 57.5v88h63v-88q18 -2 41 -6.5t113 -34.5v-103q-29 30 -71 50.5t-83 25.5v-225q102 -18 146.5 -63t44.5 -119q0 -45 -14 -82.5
t-39.5 -65t-61 -44.5t-76.5 -22v-121h-63zM426 197q0 23 -9 45.5t-32 37t-58 22.5v-229q45 8 72 41t27 83zM258 411l6 -2v212q-47 -7 -71.5 -35.5t-24.5 -74.5q0 -79 90 -100z" />
    <glyph glyph-name="percent" unicode="%" horiz-adv-x="902" 
d="M865 158q0 -52 -22.5 -90t-66 -61t-106.5 -23q-52 0 -99 20t-72 61.5t-25 92.5q0 86 52.5 130t143.5 44q90 0 142.5 -44t52.5 -130zM674 690l-377 -690h-67l374 690h70zM428 532q0 -42 -14.5 -75t-41 -55t-62.5 -33.5t-77 -11.5q-63 0 -107 24t-66.5 62t-22.5 89
q0 54 21.5 91.5t64.5 59.5t110 22q90 0 142.5 -44t52.5 -129zM787 158q0 39 -18 68t-45.5 39.5t-52.5 10.5t-53.5 -10.5t-47 -39t-18.5 -68.5q0 -55 32 -86.5t87 -31.5q40 0 68 18t38 46t10 54zM350 532q0 39 -18 67.5t-45.5 39t-52.5 10.5q-40 0 -69 -18t-39.5 -46
t-10.5 -53q0 -41 18.5 -69.5t46.5 -39t54 -10.5q54 0 85 32t31 87z" />
    <glyph glyph-name="ampersand" unicode="&#x26;" horiz-adv-x="662" 
d="M686 0h-126l-71 67q-71 -90 -192 -90q-51 0 -96.5 15.5t-78.5 45t-51.5 72.5t-18.5 95q0 128 142 192q-1 2 -17 26.5t-28 47.5t-18.5 47.5t-6.5 47.5q0 16 4 35.5t15 37.5t30.5 34t48.5 25t58 9q31 0 68.5 -10.5t65 -41.5t29.5 -79q0 -65 -36.5 -119t-98.5 -85
q83 -99 163 -179q4 8 8.5 31t4.5 63q0 42 -4 61h88q-1 -58 -8.5 -109.5t-27.5 -102.5q1 -1 47.5 -44.5t73.5 -66.5t33 -25zM363 567q0 37 -21.5 55t-58.5 18q-36 0 -59 -19t-23 -54q0 -24 14 -55.5t51 -80.5q31 16 55 39.5t33 49t9 47.5zM438 119q-103 103 -200 220
q-37 -16 -60.5 -35.5t-32.5 -45t-9 -50.5q0 -27 10 -54.5t35.5 -53t61.5 -37t64 -11.5q42 0 76 16.5t55 50.5z" />
    <glyph glyph-name="quotesingle" unicode="'" horiz-adv-x="152" 
d="M110 501h-68v189h68v-189z" />
    <glyph glyph-name="parenleft" unicode="(" horiz-adv-x="367" 
d="M315 -124h-82q-85 104 -123 203t-38 228t38 227.5t123 202.5h82q-82 -109 -112.5 -207t-30.5 -223t31 -224t112 -207z" />
    <glyph glyph-name="parenright" unicode=")" horiz-adv-x="367" 
d="M295 307q0 -129 -37.5 -227.5t-122.5 -203.5h-83q82 110 113 208t31 223t-31 223.5t-113 206.5h83q84 -103 122 -202.5t38 -227.5z" />
    <glyph glyph-name="asterisk" unicode="*" horiz-adv-x="388" 
d="M348 480l-30 -53l-101 67l8 -120h-61l7 121l-101 -68l-31 53l107 55l-107 52l31 53l100 -64l-6 118h61l-8 -118l101 64l30 -53l-107 -52z" />
    <glyph glyph-name="plus" unicode="+" horiz-adv-x="646" 
d="M564 226q-3 3 -25.5 5.5t-48.5 2.5h-129v-131q0 -17 2 -43t5 -31h-89q2 3 4 23t2 45v137h-129q-16 0 -43 -2.5t-31 -5.5v89q3 -2 23 -4t46 -2h134v133q0 16 -1.5 41t-4.5 28h89q-2 -3 -4.5 -24.5t-2.5 -49.5v-128h135q16 0 40.5 1.5t27.5 4.5v-89z" />
    <glyph glyph-name="comma" unicode="," horiz-adv-x="221" 
d="M154 13q0 -23 -8 -47t-28 -41t-47 -23v29q36 17 36 69h-39v85h86v-72z" />
    <glyph glyph-name="hyphen" unicode="-" horiz-adv-x="348" 
d="M284 227h-220v75h220v-75z" />
    <glyph glyph-name="period" unicode="." horiz-adv-x="221" 
d="M154 0h-86v85h86v-85z" />
    <glyph glyph-name="slash" unicode="/" horiz-adv-x="391" 
d="M381 737l-305 -785h-77l303 785h79z" />
    <glyph glyph-name="zero" unicode="0" horiz-adv-x="599" 
d="M554 344q0 -74 -10.5 -137t-37.5 -114.5t-78.5 -82t-128.5 -30.5q-39 0 -79.5 10t-74.5 37.5t-54.5 66t-34 97t-13.5 153.5q0 74 10.5 137.5t38 115t79.5 82t129 30.5q130 0 192 -90t62 -275zM459 344q0 96 -14 156.5t-36 86.5q-40 48 -111 48t-111 -48q-49 -58 -49 -243
t49 -243q40 -47 111 -47t111 47q22 26 33.5 76.5t14 94.5t2.5 72z" />
    <glyph glyph-name="one" unicode="1" horiz-adv-x="599" 
d="M384 0h-92v605q-38 -35 -74 -51.5t-90 -23.5v89q46 4 83 21.5t73 49.5h100v-690z" />
    <glyph glyph-name="two" unicode="2" horiz-adv-x="599" 
d="M518 496q0 -54 -38.5 -121t-120 -145t-187.5 -149h252q64 0 77 5v-86h-433v97q105 71 189 148t125 143t41 117q0 47 -24.5 78.5t-60.5 42.5t-65 11q-49 0 -88 -14q-25 -8 -53.5 -21.5t-40.5 -27.5v102q116 34 188 34q53 0 97.5 -12.5t76 -38.5t48.5 -67t17 -96z" />
    <glyph glyph-name="three" unicode="3" horiz-adv-x="599" 
d="M515 203q0 -38 -12.5 -77.5t-47 -76t-86 -54t-103.5 -17.5q-85 0 -188 40v95q37 -32 87 -47t105 -15q65 0 107 41t42 105q0 61 -36.5 94.5t-124.5 33.5l-49 -1v84l33 -1q45 0 81 13t56 39.5t20 67.5q0 56 -32.5 83.5t-89.5 27.5q-106 0 -183 -58v95q89 34 187 34
q64 0 110 -19.5t73 -57.5t27 -94q0 -59 -35 -104t-93 -59q71 -7 111.5 -54t40.5 -118z" />
    <glyph glyph-name="four" unicode="4" horiz-adv-x="599" 
d="M555 172q-20 5 -59 5h-49v-73q0 -79 5 -104h-103q4 14 4 64v113h-312v96l40 56l193 291l46 70h127v-434h47q52 0 61 3v-87zM353 256v334q-128 -196 -221 -334h221z" />
    <glyph glyph-name="five" unicode="5" horiz-adv-x="599" 
d="M519 223q0 -53 -23 -99t-62.5 -78.5t-91 -50t-105.5 -17.5q-36 0 -77.5 7.5t-73.5 20.5v91q26 -19 72 -31t83 -12q85 0 133 45t48 132q0 62 -42 94t-108 32q-84 0 -174 -25l46 358h334v-89q-6 3 -30 5t-57 2h-166l-26 -185q65 8 77.5 9t21.5 1q106 0 163.5 -53t57.5 -157
z" />
    <glyph glyph-name="six" unicode="6" horiz-adv-x="599" 
d="M534 221q0 -51 -17 -95.5t-49 -77t-76 -50.5t-96 -18q-49 0 -92.5 17.5t-74.5 49.5t-48 75.5t-17 92.5q0 68 21 132q19 56 70 147t129 196h119q-40 -32 -101.5 -123t-94.5 -155q23 18 53 26t56 8q37 0 75 -11t73.5 -41.5t52.5 -77.5t17 -95zM443 214q0 54 -18 90t-50 55
t-77 19q-65 0 -105 -46t-40 -118q0 -41 15.5 -80t49.5 -61t78 -22q45 0 80 20.5t51 59.5t16 83z" />
    <glyph glyph-name="seven" unicode="7" horiz-adv-x="599" 
d="M515 593q-86 -150 -144 -280q-28 -67 -67 -172t-42 -135l-2 -6h-107q75 210 133 339q46 101 141 269h-240q-71 0 -90 -8v90h418v-97z" />
    <glyph glyph-name="eight" unicode="8" horiz-adv-x="599" 
d="M543 187q0 -79 -56 -140q-67 -67 -188 -67q-122 0 -188 67q-56 59 -56 140q0 51 16 89.5t45 62.5t71 35q-49 24 -76 65.5t-27 95.5q0 42 18.5 77.5t51.5 59.5q54 37 145 37q93 0 144 -37q34 -24 52 -59.5t18 -77.5q0 -54 -26.5 -95.5t-76.5 -65.5q67 -17 100 -65.5
t33 -121.5zM426 524q0 28 -13 55t-44 45.5t-70 18.5q-25 0 -55 -11t-51.5 -41t-21.5 -69q0 -52 37 -84t91 -32q39 0 70 18t44 45t13 55zM447 188q0 71 -39 106.5t-110 35.5q-147 0 -147 -144q0 -64 41 -101.5t107 -37.5t107 37.5t41 103.5z" />
    <glyph glyph-name="nine" unicode="9" horiz-adv-x="599" 
d="M531 473q0 -65 -22 -132q-13 -37 -41.5 -93.5t-71.5 -124t-85 -123.5h-118q39 31 100 121t95 156q-22 -16 -52.5 -25t-57.5 -9q-100 0 -159 62.5t-59 162.5q0 51 17 95.5t49 77t76 50.5t96 18q50 0 93 -18t74.5 -50t48.5 -75.5t17 -92.5zM441 475q0 30 -8.5 60.5t-27 53
t-46 35.5t-61.5 13q-45 0 -77 -18.5t-51 -54.5t-19 -89q0 -74 36.5 -119t108.5 -45q66 0 105.5 46t39.5 118z" />
    <glyph glyph-name="colon" unicode=":" horiz-adv-x="231" 
d="M159 381h-86v84h86v-84zM159 0h-86v85h86v-85z" />
    <glyph glyph-name="semicolon" unicode=";" horiz-adv-x="231" 
d="M159 381h-86v84h86v-84zM159 13q0 -47 -23 -75t-60 -36v29q36 17 36 69h-39v85h86v-72z" />
    <glyph glyph-name="less" unicode="&#x3c;" horiz-adv-x="646" 
d="M545 424q-6 1 -30.5 -9.5t-39.5 -17.5l-264 -126l264 -127q61 -27 70 -26l-38 -79q-1 4 -23.5 16.5t-35.5 18.5l-347 167v60l347 167q57 27 59 35z" />
    <glyph glyph-name="equal" unicode="=" horiz-adv-x="646" 
d="M564 325q-3 3 -25.5 5.5t-48.5 2.5h-334q-16 0 -43 -2.5t-31 -5.5v89q3 -2 23 -4t46 -2h344q16 0 41 1.5t28 4.5v-89zM564 127q-3 3 -25.5 5.5t-48.5 2.5h-334q-16 0 -43 -2.5t-31 -5.5v89q3 -2 23 -4t46 -2h344q16 0 41 1.5t28 4.5v-89z" />
    <glyph glyph-name="greater" unicode="&#x3e;" horiz-adv-x="646" 
d="M545 241l-347 -167q-13 -6 -35.5 -18.5t-23.5 -16.5l-38 79q9 -1 70 26l264 127l-264 126q-15 7 -39.5 17.5t-30.5 9.5l38 79q2 -8 59 -35l347 -167v-60z" />
    <glyph glyph-name="question" unicode="?" horiz-adv-x="470" 
d="M434 532q0 -45 -11.5 -78.5t-33 -61.5t-60.5 -64.5t-48 -44.5q-29 -26 -41.5 -43t-16.5 -39t-4 -47h-82q0 38 7 72q6 25 20 47.5t30 39.5t48.5 48t45 46.5t21.5 29t17.5 34.5t8.5 50q0 60 -35.5 90.5t-97.5 30.5q-106 0 -187 -87v107q39 27 91 39.5t106 12.5
q68 0 118 -22.5t77 -62.5t27 -97zM222 0h-86v85h86v-85z" />
    <glyph glyph-name="at" unicode="@" horiz-adv-x="999" 
d="M896 380q0 -61 -17.5 -116t-48.5 -96.5t-74 -64.5t-91 -23q-31 0 -54 16t-30 45q-49 -58 -124 -58q-53 0 -92.5 24t-63 69t-23.5 109q0 37 10 74t31.5 73t54.5 61t67.5 36.5t71.5 11.5q85 0 125 -64l18 43h71l-73 -295q-6 -26 -6 -42q0 -12 7.5 -23t21.5 -11q27 0 49 14
t40.5 40.5t32 75.5t13.5 98q0 30 -8 65.5t-30 69t-58.5 62t-91 45t-113.5 16.5q-68 0 -128 -24.5t-104 -69t-68 -105t-24 -128.5t22 -127.5t63 -104t100 -69t129 -24.5q87 0 149 24t102 61l47 -55q-46 -39 -92.5 -61.5t-96.5 -32.5t-108 -10q-87 0 -161 29t-127 82.5
t-82 127.5t-29 160q0 87 31 161.5t87 128t132 82.5t162 29q53 0 115.5 -14.5t121 -52t91 -87t43 -94t10.5 -81.5zM608 382q1 46 -23.5 70t-68.5 24q-36 0 -65.5 -16t-50 -44t-30 -63t-9.5 -68q0 -43 12 -73t35 -45.5t60 -15.5q16 0 33 3.5t31 13t26 29t32 93.5q18 69 18 92z
" />
    <glyph glyph-name="A" unicode="A" horiz-adv-x="656" 
d="M648 0h-111q-4 24 -9 40.5t-17 48.5l-55 147h-256l-55 -148q-17 -45 -24 -88h-112q14 16 42 94l191 514q24 66 26 82h124q2 -19 24 -81l188 -512q32 -85 44 -97zM430 314l-104 273l-101 -273h205z" />
    <glyph glyph-name="B" unicode="B" horiz-adv-x="564" 
d="M520 211q0 -85 -60 -145q-32 -31 -83 -49.5t-147 -18.5q-86 0 -158 2q7 26 7 81v549q0 30 -5 60q39 1 112 6.5t111 5.5q61 0 102.5 -20.5t63 -56t21.5 -86.5q0 -29 -10 -63.5t-39 -63.5t-70 -43q75 -8 115 -50t40 -108zM392 523q0 30 -10.5 55t-40 38.5t-72.5 13.5
q-58 0 -96 -10v-217l57 -3q48 0 84.5 13t57 40.5t20.5 69.5zM422 210q0 37 -18.5 62t-55.5 39.5t-93 14.5q-40 0 -82 -5v-243q21 -4 69 -4q100 0 140 33t40 103z" />
    <glyph glyph-name="C" unicode="C" horiz-adv-x="702" 
d="M660 574q-9 7 -52 25q-47 17 -105.5 26.5t-103.5 9.5q-126 0 -195 -61.5t-69 -188.5q0 -71 22 -132t64 -105.5t101.5 -69t131.5 -24.5q51 0 108.5 15.5t96.5 42.5v-88q-45 -24 -103.5 -35.5t-115.5 -11.5q-117 0 -210 46.5t-143 141.5q-48 89 -48 207q0 78 24.5 142
t70 108t109.5 67.5t141 23.5q113 0 276 -42v-97z" />
    <glyph glyph-name="D" unicode="D" horiz-adv-x="751" 
d="M712 362q0 -62 -17.5 -121t-50.5 -108q-96 -138 -331 -138l-211 5h-27q4 15 4 37v610q0 26 -4 43q62 0 150.5 5.5t124.5 5.5q81 0 138 -14q71 -18 120 -59.5t76.5 -107.5t27.5 -158zM617 353q0 134 -72 205t-205 71q-100 0 -167 -12v-539q68 -11 131 -11q74 0 131.5 15.5
t98 49t62 89t21.5 132.5z" />
    <glyph glyph-name="E" unicode="E" horiz-adv-x="513" 
d="M466 0h-392q5 14 5 39v594q0 42 -5 57h372v-89q-18 6 -79 6h-194v-210h183q41 0 60 3v-89q-18 4 -31 4h-212v-233h222q51 0 71 5v-87z" />
    <glyph glyph-name="F" unicode="F" horiz-adv-x="490" 
d="M447 602q-23 5 -59 5h-215v-210h189q43 0 54 5v-90q-5 1 -18 3t-41.5 1t-40.5 -1h-142v-245q0 -61 6 -70h-107q7 15 7 93l-1 517q0 36 -1 53t-5 27h374v-88z" />
    <glyph glyph-name="G" unicode="G" horiz-adv-x="747" 
d="M687 342q-8 -16 -8 -83v-228q-114 -54 -242 -54q-86 0 -154 23.5t-117 65.5t-81 103q-18 35 -32 83t-14 119q0 77 24 141.5t69 109t109 68t141 23.5q120 0 278 -43v-97q-2 1 -8.5 5.5t-26 13t-21.5 9.5q-46 16 -103.5 25t-102.5 9q-128 0 -195.5 -63.5t-67.5 -191.5
q0 -70 22.5 -130.5t64 -104t100.5 -67.5t130 -24q61 0 134 22v183q0 68 -8 83h109z" />
    <glyph glyph-name="H" unicode="H" horiz-adv-x="741" 
d="M666 690q-6 -22 -6 -89v-528q0 -52 4 -73h-102q2 3 3 27t1 43v245h-393v-232q0 -70 5 -83h-104q5 17 5 79v533q0 61 -6 78h105q-5 -20 -5 -70v-223h393v208q0 56 -4 85h104z" />
    <glyph glyph-name="I" unicode="I" horiz-adv-x="257" 
d="M182 0h-107q6 27 6 79v531q0 52 -6 80h106q-6 -57 -6 -80v-531q0 -49 7 -79z" />
    <glyph glyph-name="J" unicode="J" horiz-adv-x="356" 
d="M285 690q-6 -15 -6 -76v-454q0 -60 -7 -84q-9 -37 -37.5 -59.5t-61.5 -29.5t-58 -7q-66 0 -115 23v93q22 -17 48.5 -27.5t49.5 -10.5q48 0 67.5 17.5t19.5 61.5v477q0 46 -5 76h105z" />
    <glyph glyph-name="K" unicode="K" horiz-adv-x="581" 
d="M180 0h-108q7 30 7 79v532q0 72 -7 79h108q-7 -30 -7 -78v-244l210 268q23 30 36 54h119q-1 -1 -3 -3.5t-18 -19t-33 -36.5l-217 -265l242 -287q41 -49 73 -79h-134q-14 22 -51 67l-224 277v-265q0 -54 7 -79z" />
    <glyph glyph-name="L" unicode="L" horiz-adv-x="466" 
d="M457 0h-385q7 30 7 74v542q0 54 -6 74h106q-6 -51 -6 -75v-533h232q40 0 52 6v-88z" />
    <glyph glyph-name="M" unicode="M" horiz-adv-x="910" 
d="M842 0h-106q3 18 3 42l-1 33l-26 497l-173 -487q-2 -5 -7 -20t-11.5 -39t-7.5 -26h-121q-13 47 -26 85l-172 486l-28 -497l-2 -43q0 -16 3 -31h-100q9 33 12 78q13 260 30 526q2 33 2 86h144q10 -44 25 -84l175 -498l174 492q8 24 13 42.5t8 32t3 15.5h145l3 -87l29 -527
q3 -52 12 -76z" />
    <glyph glyph-name="N" unicode="N" horiz-adv-x="806" 
d="M733 0h-140q-21 34 -58 85l-364 502v-508q0 -64 6 -79h-103q0 3 1.5 12.5t2.5 24.5t1 43v513q0 72 -5 97h139q10 -21 59 -89l363 -500v498q0 66 -4 91h102q-5 -30 -5 -91v-500q0 -30 0.5 -50.5t2.5 -33t2 -15.5z" />
    <glyph glyph-name="O" unicode="O" horiz-adv-x="780" 
d="M741 351q0 -81 -23 -149.5t-68 -118t-111 -76.5t-148 -27q-76 0 -141.5 26.5t-112 75t-72 115t-25.5 142.5q0 78 23 146.5t67 118.5t109 77.5t145 27.5q78 0 144.5 -26t114 -74t73 -114.5t25.5 -143.5zM642 336q0 62 -16.5 116t-49.5 94.5t-83 63t-114 22.5
q-78 0 -130.5 -31.5t-81 -92.5t-28.5 -154q0 -62 16.5 -116.5t49.5 -94.5t83 -62.5t114 -22.5q77 0 129.5 31.5t81.5 92.5t29 154z" />
    <glyph glyph-name="P" unicode="P" horiz-adv-x="525" 
d="M498 529q0 -164 -154 -219q-17 -6 -50 -12t-121 -6v-231q3 -50 8 -61h-109q7 23 7 82v525q0 61 -5 83l36 -1q28 0 85.5 5.5t82.5 5.5q105 0 162.5 -44t57.5 -127zM404 515q0 53 -30.5 82t-101.5 29q-48 0 -99 -9v-250l40 -2q61 0 103.5 18.5t65 51.5t22.5 80z" />
    <glyph glyph-name="Q" unicode="Q" horiz-adv-x="790" 
d="M778 67l-10 -87q-88 -8 -166 -8q-145 0 -196 4q-133 10 -211.5 60t-121.5 141q-15 35 -24.5 78t-9.5 82q0 86 25.5 156t72.5 118t112.5 73t142.5 25q79 0 145.5 -26.5t114 -75t73 -116t25.5 -145.5q0 -42 -10.5 -99t-48 -114t-101.5 -93q110 6 188 27zM650 338
q0 62 -17 116t-51 93.5t-85 61.5t-116 22q-47 0 -91.5 -13.5t-78 -46t-53 -86t-19.5 -131.5q0 -63 14.5 -110.5t36.5 -80.5t53.5 -56.5t73 -36.5t89.5 -13q47 0 92 14t78.5 47.5t53.5 88t20 131.5z" />
    <glyph glyph-name="R" unicode="R" horiz-adv-x="592" 
d="M592 0h-135l-44 51l-240 255v-223q0 -66 7 -83h-107q6 17 6 83v525q0 32 -5 82q36 0 111.5 6t110.5 6q65 0 108.5 -20.5t65.5 -57.5t22 -92q0 -91 -55 -147t-155 -70l225 -234q60 -63 85 -81zM397 516q0 53 -28.5 82.5t-98.5 29.5q-20 0 -97 -9v-233q42 -4 61 -4
q84 0 123.5 35.5t39.5 98.5z" />
    <glyph glyph-name="S" unicode="S" horiz-adv-x="474" 
d="M428 182q0 -32 -9.5 -67t-36.5 -69t-68.5 -51t-85.5 -17q-80 0 -183 49v104q3 -6 18.5 -17t34.5 -21q27 -16 61 -28t65 -12q55 0 85 32.5t30 88.5q0 37 -20.5 65t-67.5 54t-51 28q-66 38 -92 58.5t-40.5 42t-21.5 46.5t-7 56q0 35 10.5 70t35.5 61t63 41.5t88 15.5
q36 0 76.5 -7.5t73.5 -20.5v-90q-15 16 -44 27t-57 15t-47 4q-50 0 -79.5 -30t-29.5 -79q0 -65 74 -109q11 -6 58 -29.5t80 -47t53 -52.5t27 -57.5t7 -53.5z" />
    <glyph glyph-name="T" unicode="T" horiz-adv-x="575" 
d="M565 600q-56 7 -89 7h-142v-493q0 -28 2 -67t5 -47h-107q6 26 6 103v504h-157q-33 0 -73 -7v90h555v-90z" />
    <glyph glyph-name="U" unicode="U" horiz-adv-x="738" 
d="M667 690q-5 -12 -5 -87v-266q0 -102 -2.5 -144t-9.5 -68q-9 -31 -31.5 -59.5t-63.5 -49t-92.5 -28.5t-93.5 -8q-66 0 -124.5 14t-100.5 46.5t-57 84.5q-4 15 -7.5 51.5t-3.5 162.5v264q0 73 -5 87h106q-7 -15 -7 -88v-368q0 -56 7 -78q13 -49 61.5 -73.5t130.5 -24.5
q165 0 192 97q6 19 6 76v370q0 72 -4 89h104z" />
    <glyph glyph-name="V" unicode="V" horiz-adv-x="672" 
d="M667 690q-18 -28 -44 -93l-196 -515l-30 -82h-128q-6 29 -27 82l-195 514q-20 54 -41 94h118q1 -13 7.5 -39.5t15.5 -50.5l190 -502l190 503q20 51 26 89h114z" />
    <glyph glyph-name="W" unicode="W" horiz-adv-x="1055" 
d="M1031 690q-17 -34 -39 -102l-139 -464q-30 -97 -36 -124h-136q-12 56 -21 88l-133 490l-133 -490q-4 -14 -20 -88h-135l-28 99q-27 86 -81 266.5t-71 235.5q-17 59 -35 89h113q-1 -19 18 -82l152 -500l134 496q18 63 19 86h140q0 -18 17 -82l137 -498l149 498
q17 54 17 79v3h111z" />
    <glyph glyph-name="X" unicode="X" horiz-adv-x="592" 
d="M569 0h-124q-13 39 -41 87l-111 181l-109 -182q-38 -65 -40 -86h-125q24 25 66 94l158 261l-128 210q-55 94 -79 125h120q4 -20 43 -86l97 -162l95 160q39 66 39 88h121q-27 -36 -61 -94l-142 -238l162 -269q40 -64 59 -89z" />
    <glyph glyph-name="Y" unicode="Y" horiz-adv-x="593" 
d="M585 690q-4 -2 -16 -19t-28 -45l-195 -334v-206q0 -72 5 -86h-104q5 11 5 88v205l-212 341q-22 35 -40 56h125q1 -15 28 -62l147 -254l136 247q23 44 27 69h122z" />
    <glyph glyph-name="Z" unicode="Z" horiz-adv-x="600" 
d="M558 0h-515v103q13 12 41 44q337 421 368 461h-305q-88 0 -106 -6v88h512v-105l-406 -503h316q70 0 95 6v-88z" />
    <glyph glyph-name="bracketleft" unicode="[" horiz-adv-x="392" 
d="M332 -130q-3 2 -24 4t-43 2h-164v861h164q14 0 38.5 1.5t28.5 5.5v-86q-4 3 -26.5 5t-48.5 2h-72v-717h72q18 0 44 2t31 6v-86z" />
    <glyph glyph-name="backslash" unicode="\" horiz-adv-x="391" 
d="M381 -48h-77l-305 785h79z" />
    <glyph glyph-name="bracketright" unicode="]" horiz-adv-x="392" 
d="M291 -124h-164q-14 0 -38.5 -1.5t-28.5 -4.5v86q4 -3 26 -5.5t49 -2.5h73v717h-73q-17 0 -43.5 -1.5t-31.5 -5.5v86q3 -3 23.5 -5t43.5 -2h164v-861z" />
    <glyph glyph-name="asciicircum" unicode="^" horiz-adv-x="807" 
d="M623 540l-55 -69l-188 138l-155 -134l-41 45l215 189z" />
    <glyph glyph-name="underscore" unicode="_" 
d="M538 -125h-538v71h538v-71z" />
    <glyph glyph-name="grave" unicode="`" 
d="M386 588l-12 -17l-222 122l57 75z" />
    <glyph glyph-name="a" unicode="a" horiz-adv-x="537" 
d="M484 0h-93v47q-39 -32 -81 -46t-96 -14q-56 0 -97.5 22t-63.5 58t-22 84q0 35 10 63t33 51.5t61 38.5t84.5 21t106 7t64.5 1v52q0 38 -33 51.5t-94 13.5q-93 0 -190 -47v84q128 31 196 31q41 0 86 -8.5t72.5 -27.5t37.5 -43q1 -3 2.5 -8.5t2.5 -15.5t1 -22v-24.5v-15.5
v-253q0 -71 13 -100zM390 193v67q-40 3 -89 3q-70 0 -107 -10.5t-55 -35t-18 -59.5q0 -46 31 -73.5t83 -27.5q28 0 64.5 12t63.5 44.5t27 79.5z" />
    <glyph glyph-name="b" unicode="b" horiz-adv-x="586" 
d="M549 260q0 -53 -16 -102t-48 -87t-80.5 -60t-109.5 -22q-45 0 -79.5 10.5t-69.5 37.5l-6 -37h-80q3 4 5.5 27.5t2.5 55.5v565q0 72 -8 89h91v-263q67 43 144 43q121 0 187.5 -67t66.5 -190zM460 260q0 37 -9 70t-29 59.5t-53 41.5t-77 15q-40 0 -77 -15t-64 -43v-169
q0 -62 8 -88q6 -17 24 -34.5t48.5 -27.5t61.5 -10q52 0 88.5 24.5t57.5 69.5t21 107z" />
    <glyph glyph-name="c" unicode="c" horiz-adv-x="526" 
d="M492 24q-63 -37 -168 -37q-63 0 -117 18.5t-93 55t-60 89.5t-21 118q0 119 68.5 184t186.5 65q82 0 203 -33v-88q-76 51 -190 51q-84 0 -132 -42.5t-48 -126.5q0 -38 10.5 -77t39.5 -74.5t75.5 -52.5t96.5 -17q79 0 149 47v-80z" />
    <glyph glyph-name="d" unicode="d" horiz-adv-x="588" 
d="M527 0h-81l-7 36q-64 -49 -151 -49q-119 0 -185 65.5t-66 187.5q0 29 6 65t22 71.5t46 67t78.5 51.5t107.5 20q27 0 64.5 -9.5t74.5 -36.5v268h90q-7 -30 -7 -70v-586q0 -45 8 -81zM436 116v168q0 65 -11 91q-6 17 -23.5 34t-48 26.5t-61.5 9.5q-53 0 -89.5 -24.5
t-57 -69.5t-20.5 -107q0 -29 7 -60t25.5 -59t52 -47.5t83.5 -19.5q88 0 143 58z" />
    <glyph glyph-name="e" unicode="e" horiz-adv-x="581" 
d="M550 243h-427q0 -90 57 -137.5t153 -47.5q30 0 73 11t87 39v-86q-41 -16 -86.5 -25.5t-86.5 -9.5q-45 0 -93.5 10.5t-86 35t-60.5 55t-35.5 72t-12.5 90.5q0 58 17.5 107.5t51 85t82 55t108.5 19.5q56 0 98 -16t74.5 -42.5t58 -76t27.5 -118.5zM450 313q-4 29 -21 61
t-54 53t-85 21q-42 0 -74 -14t-56 -44.5t-32 -76.5h322z" />
    <glyph glyph-name="f" unicode="f" horiz-adv-x="326" 
d="M343 652q-39 14 -98 14q-44 0 -61.5 -16.5t-17.5 -59.5v-83h76q18 0 43 1.5t28 4.5v-85q-2 3 -23.5 5.5t-52.5 2.5h-72v-378q0 -25 5 -58h-92q5 22 5 57v379h-65v71h65v93q0 67 37 102t95 35l128 -7v-78z" />
    <glyph glyph-name="g" unicode="g" horiz-adv-x="541" 
d="M544 436q-26 13 -51 13q-27 0 -53 -15q38 -55 38 -115q0 -21 -5 -48t-19 -53t-39 -49t-63.5 -37.5t-83.5 -14.5q-15 0 -35.5 2.5t-63.5 16.5q-13 -1 -21.5 -13t-8.5 -24q0 -15 15 -23t34 -10.5t34 -3t44 -0.5q81 0 134.5 -15.5t79 -45t25.5 -69.5q0 -47 -21.5 -81
t-58 -53.5t-81.5 -27.5t-86 -8q-114 0 -179.5 34.5t-65.5 105.5q0 81 103 112q-24 11 -39 29.5t-15 41.5q0 21 11.5 39.5t45.5 39.5q-35 26 -53 65t-18 85q0 34 10.5 69t36 65t67 49.5t97.5 19.5q88 0 148 -46q46 46 137 46v-81zM392 320q0 45 -22 76t-52.5 42.5t-58.5 11.5
q-57 0 -91.5 -37.5t-34.5 -97.5q0 -29 12 -59t45 -51t76 -21q29 0 58 12t48.5 46t19.5 78zM420 -93q0 42 -35 63t-125 21q-159 0 -159 -85q0 -41 37.5 -62.5t126.5 -21.5q35 0 71.5 9t60 27.5t23.5 48.5z" />
    <glyph glyph-name="h" unicode="h" horiz-adv-x="571" 
d="M512 0h-96q6 18 6 68v268q0 62 -30 87.5t-100 25.5q-69 0 -103.5 -22.5t-36.5 -70.5l-1 -50v-246q0 -46 6 -60h-96q7 23 7 46v629q0 44 -7 62h90v-268q55 48 155 48q81 0 129 -27q20 -11 36 -30.5t24 -42.5q10 -29 10 -101v-257q0 -41 7 -59z" />
    <glyph glyph-name="i" unicode="i" horiz-adv-x="220" 
d="M153 606h-86v84h86v-84zM156 0h-92q5 19 5 75v361q0 44 -5 71h92q-5 -25 -5 -71v-361q0 -54 5 -75z" />
    <glyph glyph-name="j" unicode="j" horiz-adv-x="224" 
d="M156 607h-85v83h85v-83zM159 507q-4 -36 -4 -71v-406q0 -93 -41.5 -139.5t-129.5 -57.5v77q24 2 45.5 10.5t32 30t10.5 82.5v404q0 36 -4 70h91z" />
    <glyph glyph-name="k" unicode="k" horiz-adv-x="499" 
d="M157 0h-96q7 14 7 66v597q0 44 -7 68h90v-460l215 236h116q-31 -23 -44 -35.5t-19 -19.5l-178 -186l159 -165l43 -44q36 -35 67 -57h-126l-233 250v-186q0 -52 6 -64z" />
    <glyph glyph-name="l" unicode="l" horiz-adv-x="220" 
d="M158 0h-97q8 13 8 74v592q0 56 -8 71h90v-663q0 -62 7 -74z" />
    <glyph glyph-name="m" unicode="m" horiz-adv-x="862" 
d="M803 0h-95q6 10 6 67v276q0 59 -25 82.5t-87 23.5q-70 0 -99 -27.5t-29 -96.5v-264q0 -56 5 -61h-93q5 10 5 60v269q0 46 -9 71t-33.5 37t-68.5 12q-98 0 -121 -57q-8 -22 -8 -83v-238q0 -18 2 -43t5 -28h-97q3 1 5 22t2 49v371q0 47 -7 65h91l1 -38q21 23 57 35.5
t70 12.5q74 0 110.5 -17t56.5 -44q58 61 163 61q44 0 81.5 -10.5t60 -32t32.5 -47.5q13 -39 13 -135v-225q0 -18 1.5 -40.5t4.5 -26.5z" />
    <glyph glyph-name="n" unicode="n" horiz-adv-x="576" 
d="M515 0h-95q2 3 4 21t2 45v269q0 59 -26.5 86.5t-104.5 27.5q-63 0 -93 -16t-42 -41q-9 -24 -9 -86v-240q0 -18 2 -41t5 -25h-97q7 19 7 66v374q0 45 -6 67h88l1 -41q11 13 33.5 25.5t56.5 19t66 6.5t68 -6.5t61 -19.5q41 -20 59 -65q5 -12 9 -41t4 -118v-201
q0 -18 2 -40.5t5 -25.5z" />
    <glyph glyph-name="o" unicode="o" horiz-adv-x="593" 
d="M560 255q0 -121 -71.5 -194.5t-191.5 -73.5q-57 0 -105.5 19t-84 54.5t-55 84.5t-19.5 105q0 54 16 102t49 85.5t83.5 58.5t114.5 21q56 0 105 -19t84.5 -54t55 -84t19.5 -105zM470 241q0 44 -11.5 82t-34 66t-57.5 43.5t-80 15.5q-51 0 -87 -20.5t-56.5 -61
t-20.5 -102.5q0 -68 23.5 -114t63.5 -69.5t95 -23.5q84 0 124.5 49t40.5 135z" />
    <glyph glyph-name="p" unicode="p" horiz-adv-x="594" 
d="M557 260q0 -54 -17.5 -104t-50.5 -88t-80.5 -59.5t-103.5 -21.5q-40 0 -75.5 7t-78.5 36v-263h-90q7 11 7 66v569l-1 65q0 34 -8 40h80l7 -36q64 46 151 46q124 0 192 -66t68 -191zM467 262q0 49 -19.5 93.5t-60.5 68t-91 23.5q-84 0 -145 -59v-186q0 -55 10 -77
q8 -17 25.5 -33.5t47.5 -26t63 -9.5q32 0 63 11t57.5 40t38 71.5t11.5 83.5z" />
    <glyph glyph-name="q" unicode="q" horiz-adv-x="593" 
d="M532 -233h-91v262q-61 -42 -148 -42q-122 0 -189 65t-67 189q0 58 17.5 108.5t51 88t81.5 58.5t107 21q46 0 81 -12t70 -38l6 40h82q-3 -5 -6 -28t-3 -55v-582q0 -51 8 -75zM441 116v167q0 66 -9 93q-6 17 -24.5 33.5t-49.5 26.5t-62 10q-53 0 -90.5 -24.5t-59 -70
t-21.5 -108.5q0 -61 22.5 -102t60 -62t88.5 -21q90 0 145 58z" />
    <glyph glyph-name="r" unicode="r" horiz-adv-x="337" 
d="M328 437l-34 3q-41 0 -74.5 -16t-51 -42t-17.5 -61v-250q0 -60 7 -71h-97q7 13 7 71v353q0 20 -2 47.5t-5 35.5h88l1 -60q29 39 69 54.5t96 15.5h13v-80z" />
    <glyph glyph-name="s" unicode="s" horiz-adv-x="400" 
d="M365 136q0 -26 -9 -52.5t-30.5 -48.5t-55 -36t-75.5 -14q-67 0 -154 39v90q10 -11 33.5 -25t58 -25t60.5 -11q24 0 44.5 9.5t29.5 27t9 35.5q0 24 -17 44.5t-80 50t-83 44.5t-31 29t-20 35t-9 50q0 28 9.5 54t33.5 47t59 30t64 9q54 0 127 -23v-79q-22 16 -58 26t-62 10
t-47.5 -8t-31 -25t-9.5 -36q0 -9 3.5 -20.5t13.5 -22t20 -16.5t58 -29q76 -37 100.5 -57.5t36.5 -45t12 -56.5z" />
    <glyph glyph-name="t" unicode="t" horiz-adv-x="351" 
d="M340 0q-73 -11 -126 -11q-50 0 -85 22t-44 64q-4 20 -4 91v270h-69v71h69v83q-2 33 -3 38t-2 7h91q-4 -31 -4 -76v-52h90q18 0 42 3v-79q-27 5 -66 5h-66v-298q0 -45 18 -62t63 -17q31 0 96 13v-72z" />
    <glyph glyph-name="u" unicode="u" horiz-adv-x="577" 
d="M513 0h-86l-1 34q-57 -47 -174 -47q-44 0 -81 12.5t-62 35t-36 56.5q-2 6 -4 17t-3 26.5t-1 90.5v203q0 51 -6 79h95q-3 -6 -5 -33.5t-2 -45.5v-258q0 -56 29.5 -85.5t103.5 -29.5q146 0 146 122v255q0 18 -2 43.5t-5 31.5h94q-5 -21 -5 -75v-345q0 -59 5 -87z" />
    <glyph glyph-name="v" unicode="v" horiz-adv-x="553" 
d="M544 507q-12 -15 -52 -109l-115 -269q-33 -72 -54 -129h-97q-10 32 -51 128l-116 277q-33 77 -48 102h104q4 -21 20 -65l142 -347l148 361q14 36 14 51h105z" />
    <glyph glyph-name="w" unicode="w" horiz-adv-x="814" 
d="M690 507h96q-8 -9 -36 -96l-129 -411h-102l-102 355q-5 17 -7 38h-2q0 -20 -5 -38l-110 -355h-102l-48 159l-77 239q-17 52 -24 70.5t-15 38.5h97q0 -14 13 -59l93 -297q8 -22 14 -60h2q3 22 12 54l91 297q16 52 16 65h87q4 -23 17 -66l93 -312l9 -38h2q1 18 7 38l94 310
q13 43 16 68z" />
    <glyph glyph-name="x" unicode="x" horiz-adv-x="535" 
d="M431 96q21 -29 43.5 -62t28.5 -34h-112q0 10 -42 71l-81 125l-102 -152q-19 -27 -25 -44h-112q10 0 192 263l-138 188q-25 35 -45 56h116q3 -10 7 -18.5t11 -19.5l96 -141l100 152q8 11 11 27h110q-8 -3 -173 -244z" />
    <glyph glyph-name="y" unicode="y" horiz-adv-x="562" 
d="M549 507q-3 -4 -9.5 -16.5t-33.5 -76.5l-285 -647h-104q18 22 24 32t16 32l78 174l-183 419q-13 31 -25 53t-18 30h112q1 -26 20 -73l140 -337q97 224 133 322q23 59 23 88h112z" />
    <glyph glyph-name="z" unicode="z" horiz-adv-x="480" 
d="M436 0h-395v85q24 19 129 150q62 78 167 201h-207q-66 0 -90 -6v77h395v-86q-92 -102 -293 -350h234q46 0 60 9v-80z" />
    <glyph glyph-name="braceleft" unicode="{" horiz-adv-x="408" 
d="M357 -130q-3 2 -23.5 4t-42.5 2h-67q-44 0 -70.5 26.5t-26.5 70.5v242q0 30 -11.5 43t-40.5 13h-33v71h33q28 0 40 13t12 43v242q0 45 26.5 71t70.5 26h67q14 0 38 1.5t28 5.5v-86q-3 3 -25 5t-47 2h-32q-42 0 -42 -41v-229q0 -30 -11 -50t-23.5 -28t-21.5 -10
q28 -8 42 -33t14 -55v-230q0 -41 45 -41h29q17 0 42.5 2t29.5 6v-86z" />
    <glyph glyph-name="bar" unicode="|" horiz-adv-x="278" 
d="M177 -161h-76v968h76v-968z" />
    <glyph glyph-name="braceright" unicode="}" horiz-adv-x="408" 
d="M366 271h-33q-28 0 -40 -13t-12 -43v-242q0 -44 -26.5 -70.5t-70.5 -26.5h-67q-14 0 -38 -1.5t-28 -4.5v86q3 -3 24.5 -5.5t47.5 -2.5h33q41 0 41 41v230q0 30 14 55t42 33q-21 5 -35.5 23.5t-17.5 37.5t-3 27v229q0 41 -45 41h-29q-17 0 -42.5 -1.5t-29.5 -5.5v86
q3 -3 23.5 -5t42.5 -2h67q44 0 70.5 -26t26.5 -71v-242q0 -30 11.5 -43t40.5 -13h33v-71z" />
    <glyph glyph-name="asciitilde" unicode="~" horiz-adv-x="807" 
d="M652 371q-77 -48 -111 -61.5t-65 -13.5q-11 0 -30 5t-63.5 31.5t-65.5 34t-39 7.5q-10 0 -26.5 -5.5t-67.5 -38.5l-29 45q63 39 85.5 50.5t45.5 18t44 6.5q11 0 30 -5t64.5 -31.5t66.5 -34t39 -7.5q13 0 27 6t25 12.5t23.5 15t16.5 10.5z" />
    <glyph glyph-name="uni00A0" unicode="&#xa0;" horiz-adv-x="284" 
 />
    <glyph glyph-name="exclamdown" unicode="&#xa1;" horiz-adv-x="286" 
d="M186 422h-87v85h87v-85zM197 -183h-108q6 44 6 99l6 435h83l7 -435q0 -54 6 -99z" />
    <glyph glyph-name="cent" unicode="&#xa2;" horiz-adv-x="599" 
d="M523 24q-63 -37 -169 -37q-45 0 -84 9l-36 -118l-63 19l38 118q-71 32 -110.5 97t-39.5 156q0 59 18 106t52 78.5t81.5 48t105.5 16.5q29 0 52 -4l34 104l60 -21l-29 -91q41 -8 89 -21v-88q-49 32 -111 43l-118 -372q36 -10 79 -10q81 0 151 47v-80zM146 278
q0 -62 23.5 -109.5t64.5 -74.5l113 353h-17q-86 0 -135 -42t-49 -127z" />
    <glyph glyph-name="sterling" unicode="&#xa3;" horiz-adv-x="599" 
d="M111 328h78q-7 13 -29.5 51.5t-36.5 72t-14 67.5q0 33 11.5 67.5t38.5 62.5t69 46t96 18q62 0 151 -38v-89q-87 58 -155 58q-24 0 -53 -10t-49 -35t-20 -55q0 -23 11 -53t42.5 -84t41.5 -79h114v-60h-98v-6q0 -76 -51 -149q15 -4 62 -27.5t73 -23.5q52 0 119 55v-91
q-70 -38 -126 -38q-45 0 -97.5 25.5t-64 29t-19.5 3.5q-38 0 -42 -46h-78q0 51 28 81.5t80 37.5q31 42 31 101q0 22 -8 48h-105v60z" />
    <glyph glyph-name="currency" unicode="&#xa4;" 
d="M413 184l-53 53q-19 -12 -44 -19.5t-47 -7.5q-46 0 -90 27l-54 -53l-49 49l53 53q-27 44 -27 91q0 46 27 90l-53 54l49 48l54 -52q44 27 90 27q22 0 47 -7.5t44 -19.5l53 52l49 -48l-53 -54q27 -44 27 -90q0 -47 -27 -91l53 -53zM269 476q-19 0 -42 -10t-40 -35t-17 -54
q0 -19 10 -42t35 -40t54 -17q19 0 42 10t40 35t17 54q0 19 -10 42t-35 40t-54 17z" />
    <glyph glyph-name="yen" unicode="&#xa5;" horiz-adv-x="599" 
d="M540 210h-188v-122q0 -71 4 -88h-103q5 11 5 88v122h-188v56h188v27l-17 28h-171v56h138l-155 257q-24 39 -41 56h125q1 -13 28 -62l143 -253l128 246q24 49 28 69h121q-4 -2 -15.5 -19t-26.5 -45q-9 -14 -66.5 -115.5t-76.5 -133.5h140v-56h-172l-16 -29v-26h188v-56z
" />
    <glyph glyph-name="brokenbar" unicode="&#xa6;" horiz-adv-x="278" 
d="M177 386h-76v357h76v-357zM177 -86h-76v356h76v-356z" />
    <glyph glyph-name="section" unicode="&#xa7;" 
d="M448 280q0 -71 -45 -117q37 -41 37 -101q0 -75 -51.5 -118t-129.5 -43q-75 0 -172 47v92q50 -36 88.5 -54.5t79.5 -18.5q32 0 55.5 13t32.5 35t9 42q0 18 -9.5 36.5t-27.5 29.5q-13 8 -93 47t-105.5 76.5t-25.5 80.5q0 67 52 113q-44 42 -44 100q0 47 22.5 82.5t64 51.5
t87.5 16q62 0 149 -29v-79q-85 46 -148 46q-38 0 -62.5 -21t-24.5 -57q0 -20 12 -39.5t48 -37.5q117 -56 146 -80t42 -53t13 -60zM360 270q0 16 -7 31.5t-24 31t-39 26.5t-48 22t-34 15q-29 -22 -29 -59q0 -16 6.5 -31t19 -25.5t24.5 -17.5t31 -15.5t24 -11.5l52 -28
q11 12 17.5 29.5t6.5 32.5z" />
    <glyph glyph-name="dieresis" unicode="&#xa8;" 
d="M410 650q0 -20 -14 -34t-34 -14t-35 14t-15 34t15 34.5t35 14.5t34 -14.5t14 -34.5zM225 650q0 -20 -14.5 -34t-33.5 -14q-20 0 -34.5 14t-14.5 34t14.5 34.5t34.5 14.5q19 0 33.5 -14.5t14.5 -34.5z" />
    <glyph glyph-name="copyright" unicode="&#xa9;" horiz-adv-x="807" 
d="M749 346q0 -69 -26.5 -133t-74.5 -111.5t-111 -74.5t-132 -27t-133 27t-111.5 74.5t-74.5 111.5t-27 133t27 132t74.5 111t111.5 74.5t133 26.5t132 -26.5t111 -74.5t74.5 -111t26.5 -132zM692 346q0 58 -22.5 110.5t-62 92t-92.5 62t-111 22.5q-28 0 -64 -7.5
t-73.5 -27.5t-72 -54.5t-57 -87t-22.5 -110.5t22.5 -111.5t62.5 -93.5t93 -62.5t111 -22.5t111 22.5t92.5 62.5t62 93.5t22.5 111.5zM547 456q-22 22 -62.5 33t-77.5 11q-142 0 -142 -132q0 -38 11.5 -70.5t34 -56.5t54.5 -37t72 -13q24 0 53.5 9.5t55.5 27.5v-64
q-55 -26 -118 -26q-104 0 -166 63t-62 165q0 33 9.5 66t33 60t62 44t93.5 17q73 0 149 -24v-73z" />
    <glyph glyph-name="ordfeminine" unicode="&#xaa;" horiz-adv-x="426" 
d="M374 352h-77v28q-50 -37 -122 -37q-55 0 -95 30t-40 87q0 29 12 52.5t36 38.5t63.5 24.5t145.5 9.5v31q0 17 -15.5 27.5t-71.5 10.5q-66 0 -140 -34v67q84 22 146 22q60 0 95.5 -15.5t45.5 -39.5q6 -12 6 -61v-169q0 -49 11 -72zM297 489v40l-58 2q-72 0 -99.5 -17.5
t-27.5 -50.5q0 -31 20 -48t57 -17q43 0 75.5 23.5t32.5 67.5z" />
    <glyph glyph-name="guillemotleft" unicode="&#xab;" horiz-adv-x="467" 
d="M405 144l-64 -49q-6 17 -29 48l-98 129l98 130q23 31 29 48l64 -50q-17 -10 -40 -40l-66 -88l66 -87q23 -30 40 -41zM249 144l-64 -49q-6 17 -29 48l-98 129l98 130q23 31 29 48l64 -50q-16 -10 -40 -40l-66 -88l66 -87q24 -30 40 -41z" />
    <glyph glyph-name="logicalnot" unicode="&#xac;" horiz-adv-x="646" 
d="M561 156h-90q2 2 4.5 22t2.5 46v104h-322q-18 0 -44.5 -2t-29.5 -5v89q2 -2 22 -4t46 -2h403v-174q0 -18 2 -43.5t6 -30.5z" />
    <glyph glyph-name="uni00AD" unicode="&#xad;" horiz-adv-x="348" 
d="M284 227h-220v75h220v-75z" />
    <glyph glyph-name="registered" unicode="&#xae;" horiz-adv-x="807" 
d="M749 346q0 -69 -26.5 -133t-74.5 -111.5t-111 -74.5t-132 -27t-133 27t-111.5 74.5t-74.5 111.5t-27 133t27 132t74.5 111t111.5 74.5t133 26.5t132 -26.5t111 -74.5t74.5 -111t26.5 -132zM692 346q0 58 -22.5 110.5t-62 92t-92.5 62t-111 22.5q-28 0 -64 -7.5
t-73.5 -27.5t-72 -54.5t-57 -87t-22.5 -110.5t22.5 -111.5t62.5 -93.5t93 -62.5t111 -22.5t111 22.5t92.5 62.5t62 93.5t22.5 111.5zM571 168l-48 -38l-141 188h-39v-132q0 -12 1 -22t3 -19.5t2 -12.5h-65q3 39 3 54v310q0 13 -3 55q23 0 69.5 4.5t67.5 4.5q32 0 59.5 -11.5
t43.5 -36t16 -63.5q0 -28 -10 -53t-32 -45t-56 -27l81 -103q14 -19 48 -53zM484 441q0 40 -17.5 58t-63.5 18q-12 0 -34 -3t-26 -3v-144l47 -2q29 0 52 10t32.5 28.5t9.5 37.5z" />
    <glyph glyph-name="macron" unicode="&#xaf;" 
d="M406 618h-274v63h274v-63z" />
    <glyph glyph-name="degree" unicode="&#xb0;" horiz-adv-x="273" 
d="M236 610q0 -41 -29 -70t-70 -29t-70 29t-29 70t29 70t70 29t70 -29t29 -70zM188 610q0 22 -15 37t-36 15t-36.5 -15.5t-15.5 -36.5t15 -36t37 -15q21 0 36 15t15 36z" />
    <glyph glyph-name="plusminus" unicode="&#xb1;" horiz-adv-x="646" 
d="M564 291q-3 2 -24.5 4.5t-49.5 2.5h-129v-86q0 -18 2 -44t5 -30h-89q2 3 4 23t2 46v91h-129q-18 0 -44 -2t-30 -5v89q3 -2 23 -4t46 -2h134v91q0 15 -1.5 39.5t-4.5 28.5h89q-2 -3 -4.5 -24.5t-2.5 -49.5v-85h135q16 0 40.5 1.5t27.5 4.5v-89zM564 15q-3 3 -25.5 5.5
t-48.5 2.5h-334q-16 0 -43 -2.5t-31 -5.5v89q3 -2 23 -4t46 -2h345q16 0 40.5 1.5t27.5 4.5v-89z" />
    <glyph glyph-name="uni00B2" unicode="&#xb2;" horiz-adv-x="411" 
d="M350 577q0 -49 -54.5 -109.5t-142.5 -118.5h132q42 0 55 4v-62h-279v65q95 61 156 120.5t61 103.5q0 31 -24.5 49.5t-60.5 18.5q-22 0 -47 -7t-42 -19.5t-25 -24.5v84q78 22 118 22q70 0 111.5 -31t41.5 -95z" />
    <glyph glyph-name="uni00B3" unicode="&#xb3;" horiz-adv-x="411" 
d="M346 412q0 -45 -27.5 -77t-65.5 -44t-67 -12q-57 0 -120 23v75q19 -18 46 -30.5t72 -12.5q24 0 46.5 11t31.5 27t9 31q0 72 -87 72q-27 0 -39 -2v58l27 -1q26 0 48.5 8t32 23t9.5 31q0 57 -68 57q-36 0 -63.5 -9t-55.5 -33v74q66 22 122 22q39 0 73 -14t48 -38.5
t14 -51.5q0 -29 -16.5 -53.5t-44.5 -36.5q33 -9 54 -35t21 -62z" />
    <glyph glyph-name="acute" unicode="&#xb4;" 
d="M386 693l-221 -122l-13 17l177 180z" />
    <glyph glyph-name="uni00B5" unicode="&#xb5;" horiz-adv-x="577" 
d="M513 0h-90l1 33q-53 -45 -137 -45q-43 0 -80 12t-55 33v-156q0 -19 2 -44.5t5 -30.5h-97q6 17 6 75v551q0 51 -6 79h96q-2 -5 -4 -27.5t-2 -51.5v-256q0 -62 31.5 -88.5t99.5 -26.5q71 0 105 27t34 94v254q0 18 -1.5 43.5t-4.5 31.5h97q-5 -17 -5 -75v-345q0 -65 5 -87z
" />
    <glyph glyph-name="paragraph" unicode="&#xb6;" horiz-adv-x="456" 
d="M390 0h-72q5 31 5 73v559h-99v-632h-72q5 25 5 72v361l-26 -1q-63 0 -96.5 31.5t-33.5 97.5q0 39 20 68t56 45t79 16h234v-690z" />
    <glyph glyph-name="periodcentered" unicode="&#xb7;" horiz-adv-x="221" 
d="M154 302h-86v86h86v-86z" />
    <glyph glyph-name="cedilla" unicode="&#xb8;" 
d="M364 -125q0 -16 -34.5 -40t-94.5 -49l-14 29q65 30 65 47q0 9 -36.5 25.5t-46 23.5t-13.5 12.5t-4 10.5q0 10 19 26t52 31h55q-13 -6 -32.5 -19.5t-19.5 -22.5q0 -8 41 -26.5t52 -28.5t11 -19z" />
    <glyph glyph-name="uni00B9" unicode="&#xb9;" horiz-adv-x="411" 
d="M253 291h-68v329q-18 -13 -39 -21.5t-58 -13.5v65q59 8 96 40h69v-399z" />
    <glyph glyph-name="ordmasculine" unicode="&#xba;" horiz-adv-x="459" 
d="M423 530q0 -84 -52 -134t-142 -50q-31 0 -64 8.5t-65 33t-48 62t-16 76.5q0 56 24 97t66.5 63.5t102.5 22.5q31 0 64 -8.5t65.5 -32.5t48.5 -61.5t16 -76.5zM351 520q0 60 -32 97t-95 37q-57 0 -86.5 -32.5t-29.5 -86.5q0 -59 33 -96.5t95 -37.5q57 0 86 32t29 87z" />
    <glyph glyph-name="guillemotright" unicode="&#xbb;" horiz-adv-x="467" 
d="M409 272l-99 -129q-23 -31 -28 -48l-63 49q16 11 38 41l67 87l-67 88q-22 30 -38 40l63 50q5 -17 28 -48zM253 272l-98 -129q-23 -31 -29 -48l-64 49q17 11 39 41l67 87l-67 88q-22 30 -39 40l64 50q6 -17 29 -48z" />
    <glyph glyph-name="onequarter" unicode="&#xbc;" horiz-adv-x="847" 
d="M789 94q-16 4 -41 4h-26v-47q0 -38 5 -51h-79q4 10 4 51v47h-190v68l173 233h87v-245h24q30 0 43 6v-66zM667 690l-467 -690h-77l465 690h79zM214 291h-70v329q-18 -13 -39 -21.5t-58 -13.5v65q59 8 96 40h71v-399zM652 154v166l-120 -166h120z" />
    <glyph glyph-name="onehalf" unicode="&#xbd;" horiz-adv-x="887" 
d="M807 286q0 -50 -54 -110t-143 -118h134q41 0 54 4v-62h-279v66q76 47 129 94.5t70.5 78.5t17.5 51q0 31 -24 49t-61 18q-32 0 -64.5 -13t-50.5 -37v84q76 21 118 21q13 0 43 -3.5t54.5 -17.5t40 -39t15.5 -66zM667 690l-467 -690h-77l465 690h79zM213 291h-70v328
q-7 -5 -27 -16.5t-70 -17.5v65q58 5 97 40h70v-399z" />
    <glyph glyph-name="threequarters" unicode="&#xbe;" horiz-adv-x="907" 
d="M736 690l-467 -690h-77l465 690h79zM348 412q0 -45 -27.5 -77t-65.5 -44t-67 -12q-57 0 -120 23v75q21 -19 48.5 -31t76.5 -12q36 0 58 21.5t22 56.5q0 63 -87 63l-39 -2v58l27 -1q26 0 48.5 8t32 23t9.5 31q0 57 -68 57q-36 0 -63.5 -9t-54.5 -33v74q64 22 121 22
q39 0 73 -14t48 -38.5t14 -51.5q0 -29 -16.5 -53.5t-44.5 -36.5q34 -9 54.5 -35t20.5 -62zM849 94q-14 4 -41 4h-25v-47q0 -38 4 -51h-79q5 10 5 51v47h-191v68l173 233h88v-245h23q30 0 43 6v-66zM713 154v166l-121 -166h121z" />
    <glyph glyph-name="questiondown" unicode="&#xbf;" horiz-adv-x="470" 
d="M326 422h-86v85h86v-85zM447 -155q-29 -20 -78.5 -36t-118.5 -16q-68 0 -118 22.5t-77 62.5t-27 97q0 45 11.5 78.5t33 61.5t60.5 64.5t48 44.5q29 26 41.5 43t16.5 39t4 47h82q-2 -41 -7 -72q-6 -25 -20 -47.5t-30 -39.5t-48.5 -48t-45 -46.5t-21.5 -29t-17.5 -34.5
t-8.5 -50q0 -60 35 -90.5t97 -30.5q107 0 188 87v-107z" />
    <glyph glyph-name="Agrave" unicode="&#xc0;" horiz-adv-x="656" 
d="M648 0h-111q-4 24 -9 40.5t-17 48.5l-55 147h-256l-55 -148q-17 -45 -24 -88h-112q14 16 42 94l191 514q24 66 26 82h124q2 -19 24 -81l188 -512q32 -85 44 -97zM430 314l-104 273l-101 -273h205zM381 771l-12 -17l-222 122l57 75z" />
    <glyph glyph-name="Aacute" unicode="&#xc1;" horiz-adv-x="656" 
d="M648 0h-111q-4 24 -9 40.5t-17 48.5l-55 147h-256l-55 -148q-17 -45 -24 -88h-112q14 16 42 94l191 514q24 66 26 82h124q2 -19 24 -81l188 -512q32 -85 44 -97zM430 314l-104 273l-101 -273h205zM498 876l-221 -122l-13 17l177 180z" />
    <glyph glyph-name="Acircumflex" unicode="&#xc2;" horiz-adv-x="656" 
d="M648 0h-111q-4 24 -9 40.5t-17 48.5l-55 147h-256l-55 -148q-17 -45 -24 -88h-112q14 16 42 94l191 514q24 66 26 82h124q2 -19 24 -81l188 -512q32 -85 44 -97zM430 314l-104 273l-101 -273h205zM491 814l-42 -53l-140 102l-114 -100l-32 35l161 142z" />
    <glyph glyph-name="Atilde" unicode="&#xc3;" horiz-adv-x="656" 
d="M648 0h-111q-4 24 -9 40.5t-17 48.5l-55 147h-256l-55 -148q-17 -45 -24 -88h-112q14 16 42 94l191 514q24 66 26 82h124q2 -19 24 -81l188 -512q32 -85 44 -97zM430 314l-104 273l-101 -273h205zM508 825q-1 -1 -26.5 -17t-41.5 -23.5t-29.5 -11t-25.5 -3.5
q-23 0 -73.5 29t-75.5 29q-8 0 -20 -4t-30 -14.5t-19 -11.5l-21 33q1 1 26.5 17t41.5 23.5t29.5 11t25.5 3.5q23 0 73.5 -29t76.5 -29q14 0 29 7.5t40 22.5z" />
    <glyph glyph-name="Adieresis" unicode="&#xc4;" horiz-adv-x="656" 
d="M648 0h-111q-4 24 -9 40.5t-17 48.5l-55 147h-256l-55 -148q-17 -45 -24 -88h-112q14 16 42 94l191 514q24 66 26 82h124q2 -19 24 -81l188 -512q32 -85 44 -97zM430 314l-104 273l-101 -273h205zM468 833q0 -20 -14 -34t-34 -14t-35 14t-15 34t15 34.5t35 14.5t34 -14.5
t14 -34.5zM283 833q0 -20 -14.5 -34t-33.5 -14q-20 0 -34.5 14t-14.5 34t14.5 34.5t34.5 14.5q19 0 33.5 -14.5t14.5 -34.5z" />
    <glyph glyph-name="Aring" unicode="&#xc5;" horiz-adv-x="656" 
d="M452 853q0 -37 -21 -68.5t-50.5 -44t-53.5 -12.5t-53.5 12.5t-50.5 44t-21 68.5q0 52 36.5 88.5t88.5 36.5t88.5 -36.5t36.5 -88.5zM398 853q0 29 -21 50t-50 21t-50 -21t-21 -50t21 -49.5t50 -20.5t50 20.5t21 49.5zM648 0h-111q-4 24 -9 40.5t-17 48.5l-55 147h-256
l-55 -148q-17 -45 -24 -88h-112q14 16 42 94l191 514q24 66 26 82h124q2 -19 24 -81l188 -512q32 -85 44 -97zM430 314l-104 273l-101 -273h205z" />
    <glyph glyph-name="AE" unicode="&#xc6;" horiz-adv-x="893" 
d="M845 0h-391q5 32 5 79v103h-250l-65 -99q-27 -44 -47 -83h-119q11 12 32.5 42.5t50.5 75.5l325 496q30 43 44 76h395v-89q-16 6 -79 6h-194v-210h184q41 0 59 3v-89q-16 4 -46 4h-197v-233h223q50 0 70 5v-87zM459 262v303l-199 -303h199z" />
    <glyph glyph-name="Ccedilla" unicode="&#xc7;" horiz-adv-x="702" 
d="M517 -125q0 -16 -34.5 -40t-94.5 -49l-14 29q31 15 42 22t17 13.5t6 11.5q0 9 -36.5 25.5t-46 23.5t-13.5 12.5t-4 10.5q0 10 16 23.5t33 23.5q-101 9 -178.5 54t-122.5 130q-48 89 -48 207q0 78 24.5 142t70 108t109.5 67.5t141 23.5q113 0 276 -42v-97q-9 7 -52 25
q-47 17 -105.5 26.5t-103.5 9.5q-126 0 -195 -61.5t-69 -188.5q0 -71 22 -132t64 -105.5t101.5 -69t131.5 -24.5q51 0 108.5 15.5t96.5 42.5v-88q-45 -24 -103.5 -35.5t-115.5 -11.5q-11 -6 -19 -14t-8 -14q0 -8 41 -26.5t52 -28.5t11 -19z" />
    <glyph glyph-name="Egrave" unicode="&#xc8;" horiz-adv-x="513" 
d="M466 0h-392q5 14 5 39v594q0 42 -5 57h372v-89q-18 6 -79 6h-194v-210h183q41 0 60 3v-89q-18 4 -31 4h-212v-233h222q51 0 71 5v-87zM340 771l-12 -17l-222 122l57 75z" />
    <glyph glyph-name="Eacute" unicode="&#xc9;" horiz-adv-x="513" 
d="M466 0h-392q5 14 5 39v594q0 42 -5 57h372v-89q-18 6 -79 6h-194v-210h183q41 0 60 3v-89q-18 4 -31 4h-212v-233h222q51 0 71 5v-87zM399 876l-221 -122l-13 17l177 180z" />
    <glyph glyph-name="Ecircumflex" unicode="&#xca;" horiz-adv-x="513" 
d="M466 0h-392q5 14 5 39v594q0 42 -5 57h372v-89q-18 6 -79 6h-194v-210h183q41 0 60 3v-89q-18 4 -31 4h-212v-233h222q51 0 71 5v-87zM421 814l-42 -53l-140 102l-114 -100l-32 35l161 142z" />
    <glyph glyph-name="Edieresis" unicode="&#xcb;" horiz-adv-x="513" 
d="M466 0h-392q5 14 5 39v594q0 42 -5 57h372v-89q-18 6 -79 6h-194v-210h183q41 0 60 3v-89q-18 4 -31 4h-212v-233h222q51 0 71 5v-87zM398 833q0 -20 -14 -34t-34 -14t-35 14t-15 34t15 34.5t35 14.5t34 -14.5t14 -34.5zM213 833q0 -20 -14.5 -34t-33.5 -14
q-20 0 -34.5 14t-14.5 34t14.5 34.5t34.5 14.5q19 0 33.5 -14.5t14.5 -34.5z" />
    <glyph glyph-name="Igrave" unicode="&#xcc;" horiz-adv-x="257" 
d="M182 0h-107q6 27 6 79v531q0 52 -6 80h106q-6 -57 -6 -80v-531q0 -49 7 -79zM181 771l-12 -17l-222 122l57 75z" />
    <glyph glyph-name="Iacute" unicode="&#xcd;" horiz-adv-x="257" 
d="M182 0h-107q6 27 6 79v531q0 52 -6 80h106q-6 -57 -6 -80v-531q0 -49 7 -79zM302 876l-221 -122l-13 17l177 180z" />
    <glyph glyph-name="Icircumflex" unicode="&#xce;" horiz-adv-x="257" 
d="M182 0h-107q6 27 6 79v531q0 52 -6 80h106q-6 -57 -6 -80v-531q0 -49 7 -79zM293 814l-42 -53l-140 102l-114 -100l-32 35l161 142z" />
    <glyph glyph-name="Idieresis" unicode="&#xcf;" horiz-adv-x="257" 
d="M182 0h-107q6 27 6 79v531q0 52 -6 80h106q-6 -57 -6 -80v-531q0 -49 7 -79zM270 833q0 -20 -14 -34t-34 -14t-35 14t-15 34t15 34.5t35 14.5t34 -14.5t14 -34.5zM85 833q0 -20 -14.5 -34t-33.5 -14q-20 0 -34.5 14t-14.5 34t14.5 34.5t34.5 14.5q19 0 33.5 -14.5
t14.5 -34.5z" />
    <glyph glyph-name="Eth" unicode="&#xd0;" horiz-adv-x="751" 
d="M712 362q0 -62 -17.5 -121t-50.5 -108q-96 -138 -331 -138l-211 5h-27q4 15 4 37v284h-35q-44 -2 -55 -8v84q8 -5 66 -5h24v255q0 26 -4 43q62 0 150.5 5.5t124.5 5.5q81 0 138 -14q71 -18 120 -59.5t76.5 -107.5t27.5 -158zM617 353q0 134 -72 205t-205 71
q-100 0 -167 -12v-225h113q60 0 66 5v-84q-5 2 -22 5t-33 3h-124v-243q68 -11 131 -11q74 0 131.5 15.5t98 49t62 89t21.5 132.5z" />
    <glyph glyph-name="Ntilde" unicode="&#xd1;" horiz-adv-x="806" 
d="M733 0h-140q-21 34 -58 85l-364 502v-508q0 -64 6 -79h-103q0 3 1.5 12.5t2.5 24.5t1 43v513q0 72 -5 97h139q10 -21 59 -89l363 -500v498q0 66 -4 91h102q-5 -30 -5 -91v-500q0 -30 0.5 -50.5t2.5 -33t2 -15.5zM583 825q-1 -1 -26.5 -17t-41.5 -23.5t-29.5 -11
t-25.5 -3.5q-23 0 -73.5 29t-75.5 29q-8 0 -20 -4t-30 -14.5t-19 -11.5l-21 33q1 1 26.5 17t41.5 23.5t29.5 11t25.5 3.5q23 0 73.5 -29t76.5 -29q14 0 29 7.5t40 22.5z" />
    <glyph glyph-name="Ograve" unicode="&#xd2;" horiz-adv-x="780" 
d="M741 351q0 -81 -23 -149.5t-68 -118t-111 -76.5t-148 -27q-76 0 -141.5 26.5t-112 75t-72 115t-25.5 142.5q0 78 23 146.5t67 118.5t109 77.5t145 27.5q78 0 144.5 -26t114 -74t73 -114.5t25.5 -143.5zM642 336q0 62 -16.5 116t-49.5 94.5t-83 63t-114 22.5
q-78 0 -130.5 -31.5t-81 -92.5t-28.5 -154q0 -62 16.5 -116.5t49.5 -94.5t83 -62.5t114 -22.5q77 0 129.5 31.5t81.5 92.5t29 154zM455 771l-12 -17l-222 122l57 75z" />
    <glyph glyph-name="Oacute" unicode="&#xd3;" horiz-adv-x="780" 
d="M741 351q0 -81 -23 -149.5t-68 -118t-111 -76.5t-148 -27q-76 0 -141.5 26.5t-112 75t-72 115t-25.5 142.5q0 78 23 146.5t67 118.5t109 77.5t145 27.5q78 0 144.5 -26t114 -74t73 -114.5t25.5 -143.5zM642 336q0 62 -16.5 116t-49.5 94.5t-83 63t-114 22.5
q-78 0 -130.5 -31.5t-81 -92.5t-28.5 -154q0 -62 16.5 -116.5t49.5 -94.5t83 -62.5t114 -22.5q77 0 129.5 31.5t81.5 92.5t29 154zM556 876l-221 -122l-13 17l177 180z" />
    <glyph glyph-name="Ocircumflex" unicode="&#xd4;" horiz-adv-x="780" 
d="M741 351q0 -81 -23 -149.5t-68 -118t-111 -76.5t-148 -27q-76 0 -141.5 26.5t-112 75t-72 115t-25.5 142.5q0 78 23 146.5t67 118.5t109 77.5t145 27.5q78 0 144.5 -26t114 -74t73 -114.5t25.5 -143.5zM642 336q0 62 -16.5 116t-49.5 94.5t-83 63t-114 22.5
q-78 0 -130.5 -31.5t-81 -92.5t-28.5 -154q0 -62 16.5 -116.5t49.5 -94.5t83 -62.5t114 -22.5q77 0 129.5 31.5t81.5 92.5t29 154zM554 814l-42 -53l-140 102l-114 -100l-32 35l161 142z" />
    <glyph glyph-name="Otilde" unicode="&#xd5;" horiz-adv-x="780" 
d="M741 351q0 -81 -23 -149.5t-68 -118t-111 -76.5t-148 -27q-76 0 -141.5 26.5t-112 75t-72 115t-25.5 142.5q0 78 23 146.5t67 118.5t109 77.5t145 27.5q78 0 144.5 -26t114 -74t73 -114.5t25.5 -143.5zM642 336q0 62 -16.5 116t-49.5 94.5t-83 63t-114 22.5
q-78 0 -130.5 -31.5t-81 -92.5t-28.5 -154q0 -62 16.5 -116.5t49.5 -94.5t83 -62.5t114 -22.5q77 0 129.5 31.5t81.5 92.5t29 154zM571 825q-1 -1 -26.5 -17t-41.5 -23.5t-29.5 -11t-25.5 -3.5q-23 0 -73.5 29t-75.5 29q-8 0 -20 -4t-30 -14.5t-19 -11.5l-21 33q1 1 26.5 17
t41.5 23.5t29.5 11t25.5 3.5q23 0 73.5 -29t76.5 -29q14 0 29 7.5t40 22.5z" />
    <glyph glyph-name="Odieresis" unicode="&#xd6;" horiz-adv-x="780" 
d="M741 351q0 -81 -23 -149.5t-68 -118t-111 -76.5t-148 -27q-76 0 -141.5 26.5t-112 75t-72 115t-25.5 142.5q0 78 23 146.5t67 118.5t109 77.5t145 27.5q78 0 144.5 -26t114 -74t73 -114.5t25.5 -143.5zM642 336q0 62 -16.5 116t-49.5 94.5t-83 63t-114 22.5
q-78 0 -130.5 -31.5t-81 -92.5t-28.5 -154q0 -62 16.5 -116.5t49.5 -94.5t83 -62.5t114 -22.5q77 0 129.5 31.5t81.5 92.5t29 154zM531 833q0 -20 -14 -34t-34 -14t-35 14t-15 34t15 34.5t35 14.5t34 -14.5t14 -34.5zM346 833q0 -20 -14.5 -34t-33.5 -14q-20 0 -34.5 14
t-14.5 34t14.5 34.5t34.5 14.5q19 0 33.5 -14.5t14.5 -34.5z" />
    <glyph glyph-name="multiply" unicode="&#xd7;" horiz-adv-x="646" 
d="M540 116l-63 -63q0 5 -16.5 24t-26.5 28l-112 112l-106 -106q-12 -12 -29 -32t-18 -25l-64 62q9 0 53 44l110 110l-109 111q-47 44 -54 44l64 64q1 -10 47 -59l106 -106l112 112q43 43 43 53l63 -64q-4 -1 -22 -15t-36 -32l-106 -108l106 -106q12 -12 32.5 -29.5
t25.5 -18.5z" />
    <glyph glyph-name="Oslash" unicode="&#xd8;" horiz-adv-x="780" 
d="M748 709l-96 -110q42 -47 65.5 -111t23.5 -137q0 -81 -23 -149.5t-68 -118t-111 -76.5t-148 -27q-62 0 -118.5 17.5t-98.5 49.5l-59 -67h-89l99 114q-41 47 -63 110.5t-22 134.5q0 78 23 146.5t67 118.5t109 77.5t145 27.5q62 0 118.5 -17t99.5 -48l57 65h89zM642 336
q0 54 -13.5 103.5t-38.5 87.5l-357 -412q65 -57 169 -57q77 0 129.5 31.5t81.5 92.5t29 154zM139 354q0 -113 48 -188l358 412q-69 54 -166 54q-78 0 -130.5 -31.5t-81 -92.5t-28.5 -154z" />
    <glyph glyph-name="Ugrave" unicode="&#xd9;" horiz-adv-x="738" 
d="M667 690q-5 -12 -5 -87v-266q0 -102 -2.5 -144t-9.5 -68q-9 -31 -31.5 -59.5t-63.5 -49t-92.5 -28.5t-93.5 -8q-66 0 -124.5 14t-100.5 46.5t-57 84.5q-4 15 -7.5 51.5t-3.5 162.5v264q0 73 -5 87h106q-7 -15 -7 -88v-368q0 -56 7 -78q13 -49 61.5 -73.5t130.5 -24.5
q165 0 192 97q6 19 6 76v370q0 72 -4 89h104zM427 771l-12 -17l-222 122l57 75z" />
    <glyph glyph-name="Uacute" unicode="&#xda;" horiz-adv-x="738" 
d="M667 690q-5 -12 -5 -87v-266q0 -102 -2.5 -144t-9.5 -68q-9 -31 -31.5 -59.5t-63.5 -49t-92.5 -28.5t-93.5 -8q-66 0 -124.5 14t-100.5 46.5t-57 84.5q-4 15 -7.5 51.5t-3.5 162.5v264q0 73 -5 87h106q-7 -15 -7 -88v-368q0 -56 7 -78q13 -49 61.5 -73.5t130.5 -24.5
q165 0 192 97q6 19 6 76v370q0 72 -4 89h104zM543 876l-221 -122l-13 17l177 180z" />
    <glyph glyph-name="Ucircumflex" unicode="&#xdb;" horiz-adv-x="738" 
d="M667 690q-5 -12 -5 -87v-266q0 -102 -2.5 -144t-9.5 -68q-9 -31 -31.5 -59.5t-63.5 -49t-92.5 -28.5t-93.5 -8q-66 0 -124.5 14t-100.5 46.5t-57 84.5q-4 15 -7.5 51.5t-3.5 162.5v264q0 73 -5 87h106q-7 -15 -7 -88v-368q0 -56 7 -78q13 -49 61.5 -73.5t130.5 -24.5
q165 0 192 97q6 19 6 76v370q0 72 -4 89h104zM533 814l-42 -53l-140 102l-114 -100l-32 35l161 142z" />
    <glyph glyph-name="Udieresis" unicode="&#xdc;" horiz-adv-x="738" 
d="M667 690q-5 -12 -5 -87v-266q0 -102 -2.5 -144t-9.5 -68q-9 -31 -31.5 -59.5t-63.5 -49t-92.5 -28.5t-93.5 -8q-66 0 -124.5 14t-100.5 46.5t-57 84.5q-4 15 -7.5 51.5t-3.5 162.5v264q0 73 -5 87h106q-7 -15 -7 -88v-368q0 -56 7 -78q13 -49 61.5 -73.5t130.5 -24.5
q165 0 192 97q6 19 6 76v370q0 72 -4 89h104zM509 833q0 -20 -14 -34t-34 -14t-35 14t-15 34t15 34.5t35 14.5t34 -14.5t14 -34.5zM324 833q0 -20 -14.5 -34t-33.5 -14q-20 0 -34.5 14t-14.5 34t14.5 34.5t34.5 14.5q19 0 33.5 -14.5t14.5 -34.5z" />
    <glyph glyph-name="Yacute" unicode="&#xdd;" horiz-adv-x="593" 
d="M585 690q-4 -2 -16 -19t-28 -45l-195 -334v-206q0 -72 5 -86h-104q5 11 5 88v205l-212 341q-22 35 -40 56h125q1 -15 28 -62l147 -254l136 247q23 44 27 69h122zM462 876l-221 -122l-13 17l177 180z" />
    <glyph glyph-name="Thorn" unicode="&#xde;" horiz-adv-x="525" 
d="M498 393q0 -118 -77.5 -178.5t-220.5 -60.5h-27v-79q0 -59 8 -75h-109q7 23 7 82v528q0 42 -6 80h106q-6 -28 -6 -80v-56q61 9 105 9q106 0 163 -42.5t57 -127.5zM404 377q0 113 -132 113q-39 0 -99 -10v-251l40 -1q51 0 96.5 15.5t70 51t24.5 82.5z" />
    <glyph glyph-name="germandbls" unicode="&#xdf;" horiz-adv-x="558" 
d="M512 206q0 -41 -13 -81t-42.5 -70t-74.5 -48t-103 -18q-42 0 -82 6v81q7 -3 29 -8.5t46 -5.5q69 0 109 37t40 107q0 44 -20.5 79.5t-57 52t-75.5 16.5q-25 0 -29 -2v75q35 2 56 7q44 11 68.5 42.5t24.5 83.5q0 48 -34 76t-82 28q-63 0 -91.5 -33.5t-28.5 -99.5v-531h-87
q4 23 4 48v482q0 104 50.5 155.5t156.5 51.5q65 0 109.5 -22t67.5 -59.5t23 -88.5q0 -39 -14 -72t-39.5 -56t-66.5 -34q78 -9 117 -63t39 -136z" />
    <glyph glyph-name="agrave" unicode="&#xe0;" horiz-adv-x="537" 
d="M484 0h-93v47q-39 -32 -81 -46t-96 -14q-56 0 -97.5 22t-63.5 58t-22 84q0 35 10 63t33 51.5t61 38.5t84.5 21t106 7t64.5 1v52q0 38 -33 51.5t-94 13.5q-93 0 -190 -47v84q128 31 196 31q41 0 86 -8.5t72.5 -27.5t37.5 -43q1 -3 2.5 -8.5t2.5 -15.5t1 -22v-24.5v-15.5
v-253q0 -71 13 -100zM390 193v67q-40 3 -89 3q-70 0 -107 -10.5t-55 -35t-18 -59.5q0 -46 31 -73.5t83 -27.5q28 0 64.5 12t63.5 44.5t27 79.5zM343 588l-12 -17l-222 122l57 75z" />
    <glyph glyph-name="aacute" unicode="&#xe1;" horiz-adv-x="537" 
d="M484 0h-93v47q-39 -32 -81 -46t-96 -14q-56 0 -97.5 22t-63.5 58t-22 84q0 35 10 63t33 51.5t61 38.5t84.5 21t106 7t64.5 1v52q0 38 -33 51.5t-94 13.5q-93 0 -190 -47v84q128 31 196 31q41 0 86 -8.5t72.5 -27.5t37.5 -43q1 -3 2.5 -8.5t2.5 -15.5t1 -22v-24.5v-15.5
v-253q0 -71 13 -100zM390 193v67q-40 3 -89 3q-70 0 -107 -10.5t-55 -35t-18 -59.5q0 -46 31 -73.5t83 -27.5q28 0 64.5 12t63.5 44.5t27 79.5zM429 693l-221 -122l-13 17l177 180z" />
    <glyph glyph-name="acircumflex" unicode="&#xe2;" horiz-adv-x="537" 
d="M484 0h-93v47q-39 -32 -81 -46t-96 -14q-56 0 -97.5 22t-63.5 58t-22 84q0 35 10 63t33 51.5t61 38.5t84.5 21t106 7t64.5 1v52q0 38 -33 51.5t-94 13.5q-93 0 -190 -47v84q128 31 196 31q41 0 86 -8.5t72.5 -27.5t37.5 -43q1 -3 2.5 -8.5t2.5 -15.5t1 -22v-24.5v-15.5
v-253q0 -71 13 -100zM390 193v67q-40 3 -89 3q-70 0 -107 -10.5t-55 -35t-18 -59.5q0 -46 31 -73.5t83 -27.5q28 0 64.5 12t63.5 44.5t27 79.5zM438 631l-42 -53l-140 102l-114 -100l-32 35l161 142z" />
    <glyph glyph-name="atilde" unicode="&#xe3;" horiz-adv-x="537" 
d="M484 0h-93v47q-39 -32 -81 -46t-96 -14q-56 0 -97.5 22t-63.5 58t-22 84q0 35 10 63t33 51.5t61 38.5t84.5 21t106 7t64.5 1v52q0 38 -33 51.5t-94 13.5q-93 0 -190 -47v84q128 31 196 31q41 0 86 -8.5t72.5 -27.5t37.5 -43q1 -3 2.5 -8.5t2.5 -15.5t1 -22v-24.5v-15.5
v-253q0 -71 13 -100zM390 193v67q-40 3 -89 3q-70 0 -107 -10.5t-55 -35t-18 -59.5q0 -46 31 -73.5t83 -27.5q28 0 64.5 12t63.5 44.5t27 79.5zM450 642q-1 -1 -26.5 -17t-41.5 -23.5t-29.5 -11t-25.5 -3.5q-23 0 -73.5 29t-75.5 29q-8 0 -20 -4t-30 -14.5t-19 -11.5l-21 33
q1 1 26.5 17t41.5 23.5t29.5 11t25.5 3.5q23 0 73.5 -29t76.5 -29q14 0 29 7.5t40 22.5z" />
    <glyph glyph-name="adieresis" unicode="&#xe4;" horiz-adv-x="537" 
d="M484 0h-93v47q-39 -32 -81 -46t-96 -14q-56 0 -97.5 22t-63.5 58t-22 84q0 35 10 63t33 51.5t61 38.5t84.5 21t106 7t64.5 1v52q0 38 -33 51.5t-94 13.5q-93 0 -190 -47v84q128 31 196 31q41 0 86 -8.5t72.5 -27.5t37.5 -43q1 -3 2.5 -8.5t2.5 -15.5t1 -22v-24.5v-15.5
v-253q0 -71 13 -100zM390 193v67q-40 3 -89 3q-70 0 -107 -10.5t-55 -35t-18 -59.5q0 -46 31 -73.5t83 -27.5q28 0 64.5 12t63.5 44.5t27 79.5zM410 650q0 -20 -14 -34t-34 -14t-35 14t-15 34t15 34.5t35 14.5t34 -14.5t14 -34.5zM225 650q0 -20 -14.5 -34t-33.5 -14
q-20 0 -34.5 14t-14.5 34t14.5 34.5t34.5 14.5q19 0 33.5 -14.5t14.5 -34.5z" />
    <glyph glyph-name="aring" unicode="&#xe5;" horiz-adv-x="537" 
d="M484 0h-93v47q-39 -32 -81 -46t-96 -14q-56 0 -97.5 22t-63.5 58t-22 84q0 35 10 63t33 51.5t61 38.5t84.5 21t106 7t64.5 1v52q0 38 -33 51.5t-94 13.5q-93 0 -190 -47v84q128 31 196 31q41 0 86 -8.5t72.5 -27.5t37.5 -43q1 -3 2.5 -8.5t2.5 -15.5t1 -22v-24.5v-15.5
v-253q0 -71 13 -100zM390 193v67q-40 3 -89 3q-70 0 -107 -10.5t-55 -35t-18 -59.5q0 -46 31 -73.5t83 -27.5q28 0 64.5 12t63.5 44.5t27 79.5zM394 684q0 -52 -36.5 -88.5t-88.5 -36.5t-88.5 36.5t-36.5 88.5t36.5 88t88.5 36t88.5 -36t36.5 -88zM340 684q0 29 -21 50
t-50 21t-50 -21t-21 -50q0 -30 21 -51t50 -21t50 21t21 51z" />
    <glyph glyph-name="ae" unicode="&#xe6;" horiz-adv-x="917" 
d="M886 243h-410q4 -185 198 -185q76 0 156 50v-86q-89 -35 -170 -35q-146 0 -221 103q-45 -55 -96.5 -79t-128.5 -24q-56 0 -97.5 22t-63.5 58t-22 84q0 51 20.5 85t54 53.5t88.5 31.5t200 12v13q0 56 -32.5 79.5t-109.5 23.5q-84 -3 -179 -46v84q128 31 196 31
q74 0 116 -19t65 -57q28 34 77 54.5t105 20.5q59 0 107 -20t80.5 -56.5t49.5 -87t17 -110.5zM787 313q-7 45 -32.5 78.5t-59 45t-65.5 11.5q-68 0 -106.5 -37t-47.5 -98h311zM394 193v67q-40 3 -93 3q-70 0 -107 -10.5t-55 -35t-18 -59.5q0 -27 11 -50.5t38 -37t65 -13.5
q30 0 67.5 11.5t64.5 43.5t27 81z" />
    <glyph glyph-name="ccedilla" unicode="&#xe7;" horiz-adv-x="526" 
d="M398 -125q0 -16 -35 -40.5t-94 -48.5l-14 29q66 30 66 47q0 9 -36.5 25.5t-46 23.5t-13.5 12.5t-4 10.5q0 9 15.5 23.5t48.5 31.5q-56 5 -102.5 26t-80 56.5t-51.5 85.5t-18 111q0 119 68.5 184t186.5 65q82 0 203 -33v-88q-76 51 -190 51q-84 0 -132 -42.5t-48 -126.5
q0 -38 10.5 -77t39.5 -74.5t75.5 -52.5t96.5 -17q79 0 149 47v-80q-32 -19 -74.5 -27.5t-79.5 -9.5q-14 -8 -28.5 -19t-14.5 -19q0 -3 5 -7.5t41 -21t46.5 -26.5t10.5 -19z" />
    <glyph glyph-name="egrave" unicode="&#xe8;" horiz-adv-x="581" 
d="M550 243h-427q0 -90 57 -137.5t153 -47.5q30 0 73 11t87 39v-86q-41 -16 -86.5 -25.5t-86.5 -9.5q-45 0 -93.5 10.5t-86 35t-60.5 55t-35.5 72t-12.5 90.5q0 58 17.5 107.5t51 85t82 55t108.5 19.5q56 0 98 -16t74.5 -42.5t58 -76t27.5 -118.5zM450 313q-4 29 -21 61
t-54 53t-85 21q-42 0 -74 -14t-56 -44.5t-32 -76.5h322zM362 588l-12 -17l-222 122l57 75z" />
    <glyph glyph-name="eacute" unicode="&#xe9;" horiz-adv-x="581" 
d="M550 243h-427q0 -90 57 -137.5t153 -47.5q30 0 73 11t87 39v-86q-41 -16 -86.5 -25.5t-86.5 -9.5q-45 0 -93.5 10.5t-86 35t-60.5 55t-35.5 72t-12.5 90.5q0 58 17.5 107.5t51 85t82 55t108.5 19.5q56 0 98 -16t74.5 -42.5t58 -76t27.5 -118.5zM450 313q-4 29 -21 61
t-54 53t-85 21q-42 0 -74 -14t-56 -44.5t-32 -76.5h322zM452 693l-221 -122l-13 17l177 180z" />
    <glyph glyph-name="ecircumflex" unicode="&#xea;" horiz-adv-x="581" 
d="M550 243h-427q0 -90 57 -137.5t153 -47.5q30 0 73 11t87 39v-86q-41 -16 -86.5 -25.5t-86.5 -9.5q-45 0 -93.5 10.5t-86 35t-60.5 55t-35.5 72t-12.5 90.5q0 58 17.5 107.5t51 85t82 55t108.5 19.5q56 0 98 -16t74.5 -42.5t58 -76t27.5 -118.5zM450 313q-4 29 -21 61
t-54 53t-85 21q-42 0 -74 -14t-56 -44.5t-32 -76.5h322zM463 631l-42 -53l-140 102l-114 -100l-32 35l161 142z" />
    <glyph glyph-name="edieresis" unicode="&#xeb;" horiz-adv-x="581" 
d="M550 243h-427q0 -90 57 -137.5t153 -47.5q30 0 73 11t87 39v-86q-41 -16 -86.5 -25.5t-86.5 -9.5q-45 0 -93.5 10.5t-86 35t-60.5 55t-35.5 72t-12.5 90.5q0 58 17.5 107.5t51 85t82 55t108.5 19.5q56 0 98 -16t74.5 -42.5t58 -76t27.5 -118.5zM450 313q-4 29 -21 61
t-54 53t-85 21q-42 0 -74 -14t-56 -44.5t-32 -76.5h322zM439 650q0 -20 -14 -34t-34 -14t-35 14t-15 34t15 34.5t35 14.5t34 -14.5t14 -34.5zM254 650q0 -20 -14.5 -34t-33.5 -14q-20 0 -34.5 14t-14.5 34t14.5 34.5t34.5 14.5q19 0 33.5 -14.5t14.5 -34.5z" />
    <glyph glyph-name="igrave" unicode="&#xec;" horiz-adv-x="220" 
d="M172 588l-12 -17l-222 122l57 75zM156 0h-92q5 19 5 75v361q0 44 -5 71h92q-5 -25 -5 -71v-361q0 -54 5 -75z" />
    <glyph glyph-name="iacute" unicode="&#xed;" horiz-adv-x="220" 
d="M284 693l-221 -122l-13 17l177 180zM156 0h-92q5 19 5 75v361q0 44 -5 71h92q-5 -25 -5 -71v-361q0 -54 5 -75z" />
    <glyph glyph-name="icircumflex" unicode="&#xee;" horiz-adv-x="220" 
d="M156 0h-92q5 19 5 75v361q0 44 -5 71h92q-5 -25 -5 -71v-361q0 -54 5 -75zM275 631l-42 -53l-140 102l-114 -100l-32 35l161 142z" />
    <glyph glyph-name="idieresis" unicode="&#xef;" horiz-adv-x="220" 
d="M252 650q0 -20 -14 -34t-34 -14t-35 14t-15 34t15 34.5t35 14.5t34 -14.5t14 -34.5zM67 650q0 -20 -14.5 -34t-33.5 -14q-20 0 -34.5 14t-14.5 34t14.5 34.5t34.5 14.5q19 0 33.5 -14.5t14.5 -34.5zM156 0h-92q5 19 5 75v361q0 44 -5 71h92q-5 -25 -5 -71v-361
q0 -54 5 -75z" />
    <glyph glyph-name="eth" unicode="&#xf0;" horiz-adv-x="596" 
d="M560 267q0 -130 -72.5 -205t-190.5 -75q-57 0 -106 19t-84.5 53.5t-54.5 81t-19 98.5q0 45 15.5 89.5t48 80.5t83.5 57.5t117 21.5q31 0 66 -5t62 -15q-29 67 -84 128l-81 -36q-12 -5 -32 -16t-22 -17l-33 70q8 -2 56 20l66 29q-21 21 -98 91h121l56 -56l62 29
q12 5 30.5 15t20.5 15l31 -70q-7 2 -59 -21l-40 -18q141 -171 141 -364zM471 264q0 29 -4 63t-10 51q-20 15 -66.5 28.5t-91.5 13.5q-35 0 -67.5 -9t-56.5 -30.5t-38 -55t-14 -81.5q0 -40 11.5 -74t34.5 -59.5t57.5 -39.5t78.5 -14q166 0 166 207z" />
    <glyph glyph-name="ntilde" unicode="&#xf1;" horiz-adv-x="576" 
d="M515 0h-95q2 3 4 21t2 45v269q0 59 -26.5 86.5t-104.5 27.5q-63 0 -93 -16t-42 -41q-9 -24 -9 -86v-240q0 -18 2 -41t5 -25h-97q7 19 7 66v374q0 45 -6 67h88l1 -41q11 13 33.5 25.5t56.5 19t66 6.5t68 -6.5t61 -19.5q41 -20 59 -65q5 -12 9 -41t4 -118v-201
q0 -18 2 -40.5t5 -25.5zM467 642q-1 -1 -26.5 -17t-41.5 -23.5t-29.5 -11t-25.5 -3.5q-23 0 -73.5 29t-75.5 29q-8 0 -20 -4t-30 -14.5t-19 -11.5l-21 33q1 1 26.5 17t41.5 23.5t29.5 11t25.5 3.5q23 0 73.5 -29t76.5 -29q14 0 29 7.5t40 22.5z" />
    <glyph glyph-name="ograve" unicode="&#xf2;" horiz-adv-x="593" 
d="M560 255q0 -121 -71.5 -194.5t-191.5 -73.5q-57 0 -105.5 19t-84 54.5t-55 84.5t-19.5 105q0 54 16 102t49 85.5t83.5 58.5t114.5 21q56 0 105 -19t84.5 -54t55 -84t19.5 -105zM470 241q0 44 -11.5 82t-34 66t-57.5 43.5t-80 15.5q-51 0 -87 -20.5t-56.5 -61
t-20.5 -102.5q0 -68 23.5 -114t63.5 -69.5t95 -23.5q84 0 124.5 49t40.5 135zM369 588l-12 -17l-222 122l57 75z" />
    <glyph glyph-name="oacute" unicode="&#xf3;" horiz-adv-x="593" 
d="M560 255q0 -121 -71.5 -194.5t-191.5 -73.5q-57 0 -105.5 19t-84 54.5t-55 84.5t-19.5 105q0 54 16 102t49 85.5t83.5 58.5t114.5 21q56 0 105 -19t84.5 -54t55 -84t19.5 -105zM470 241q0 44 -11.5 82t-34 66t-57.5 43.5t-80 15.5q-51 0 -87 -20.5t-56.5 -61
t-20.5 -102.5q0 -68 23.5 -114t63.5 -69.5t95 -23.5q84 0 124.5 49t40.5 135zM458 693l-221 -122l-13 17l177 180z" />
    <glyph glyph-name="ocircumflex" unicode="&#xf4;" horiz-adv-x="593" 
d="M560 255q0 -121 -71.5 -194.5t-191.5 -73.5q-57 0 -105.5 19t-84 54.5t-55 84.5t-19.5 105q0 54 16 102t49 85.5t83.5 58.5t114.5 21q56 0 105 -19t84.5 -54t55 -84t19.5 -105zM470 241q0 44 -11.5 82t-34 66t-57.5 43.5t-80 15.5q-51 0 -87 -20.5t-56.5 -61
t-20.5 -102.5q0 -68 23.5 -114t63.5 -69.5t95 -23.5q84 0 124.5 49t40.5 135zM460 631l-42 -53l-140 102l-114 -100l-32 35l161 142z" />
    <glyph glyph-name="otilde" unicode="&#xf5;" horiz-adv-x="593" 
d="M560 255q0 -121 -71.5 -194.5t-191.5 -73.5q-57 0 -105.5 19t-84 54.5t-55 84.5t-19.5 105q0 54 16 102t49 85.5t83.5 58.5t114.5 21q56 0 105 -19t84.5 -54t55 -84t19.5 -105zM470 241q0 44 -11.5 82t-34 66t-57.5 43.5t-80 15.5q-51 0 -87 -20.5t-56.5 -61
t-20.5 -102.5q0 -68 23.5 -114t63.5 -69.5t95 -23.5q84 0 124.5 49t40.5 135zM477 642q-1 -1 -26.5 -17t-41.5 -23.5t-29.5 -11t-25.5 -3.5q-23 0 -73.5 29t-75.5 29q-8 0 -20 -4t-30 -14.5t-19 -11.5l-21 33q1 1 26.5 17t41.5 23.5t29.5 11t25.5 3.5q23 0 73.5 -29
t76.5 -29q14 0 29 7.5t40 22.5z" />
    <glyph glyph-name="odieresis" unicode="&#xf6;" horiz-adv-x="593" 
d="M560 255q0 -121 -71.5 -194.5t-191.5 -73.5q-57 0 -105.5 19t-84 54.5t-55 84.5t-19.5 105q0 54 16 102t49 85.5t83.5 58.5t114.5 21q56 0 105 -19t84.5 -54t55 -84t19.5 -105zM470 241q0 44 -11.5 82t-34 66t-57.5 43.5t-80 15.5q-51 0 -87 -20.5t-56.5 -61
t-20.5 -102.5q0 -68 23.5 -114t63.5 -69.5t95 -23.5q84 0 124.5 49t40.5 135zM437 650q0 -20 -14 -34t-34 -14t-35 14t-15 34t15 34.5t35 14.5t34 -14.5t14 -34.5zM252 650q0 -20 -14.5 -34t-33.5 -14q-20 0 -34.5 14t-14.5 34t14.5 34.5t34.5 14.5q19 0 33.5 -14.5
t14.5 -34.5z" />
    <glyph glyph-name="divide" unicode="&#xf7;" horiz-adv-x="646" 
d="M375 417q0 -21 -15.5 -36.5t-36.5 -15.5t-36.5 15.5t-15.5 36.5t15.5 36t36.5 15t36.5 -15t15.5 -36zM564 226q-3 3 -25.5 5.5t-48.5 2.5h-334q-16 0 -43 -2.5t-31 -5.5v89q3 -2 23 -4t46 -2h345q16 0 40.5 1.5t27.5 4.5v-89zM375 126q0 -21 -15.5 -36.5t-36.5 -15.5
t-36.5 15.5t-15.5 36.5t15.5 36.5t36.5 15.5t36.5 -15.5t15.5 -36.5z" />
    <glyph glyph-name="oslash" unicode="&#xf8;" horiz-adv-x="593" 
d="M575 524l-80 -90q31 -34 48 -80.5t17 -98.5q0 -121 -71.5 -194.5t-191.5 -73.5q-91 0 -155 44l-45 -51h-80l80 91q-23 25 -38 57.5t-20.5 64.5t-5.5 57q0 54 16 102t49 85.5t83.5 58.5t114.5 21q87 0 153 -44l45 51h81zM470 241q0 35 -8.5 69.5t-23.5 58.5l-244 -279
q46 -33 111 -33q84 0 124.5 49t40.5 135zM123 264q0 -36 8 -70t23 -58l244 278q-19 15 -47.5 24.5t-63.5 9.5q-51 0 -87 -20.5t-56.5 -61t-20.5 -102.5z" />
    <glyph glyph-name="ugrave" unicode="&#xf9;" horiz-adv-x="577" 
d="M513 0h-86l-1 34q-57 -47 -174 -47q-44 0 -81 12.5t-62 35t-36 56.5q-2 6 -4 17t-3 26.5t-1 90.5v203q0 51 -6 79h95q-3 -6 -5 -33.5t-2 -45.5v-258q0 -56 29.5 -85.5t103.5 -29.5q146 0 146 122v255q0 18 -2 43.5t-5 31.5h94q-5 -21 -5 -75v-345q0 -59 5 -87zM356 588
l-12 -17l-222 122l57 75z" />
    <glyph glyph-name="uacute" unicode="&#xfa;" horiz-adv-x="577" 
d="M513 0h-86l-1 34q-57 -47 -174 -47q-44 0 -81 12.5t-62 35t-36 56.5q-2 6 -4 17t-3 26.5t-1 90.5v203q0 51 -6 79h95q-3 -6 -5 -33.5t-2 -45.5v-258q0 -56 29.5 -85.5t103.5 -29.5q146 0 146 122v255q0 18 -2 43.5t-5 31.5h94q-5 -21 -5 -75v-345q0 -59 5 -87zM454 693
l-221 -122l-13 17l177 180z" />
    <glyph glyph-name="ucircumflex" unicode="&#xfb;" horiz-adv-x="577" 
d="M513 0h-86l-1 34q-57 -47 -174 -47q-44 0 -81 12.5t-62 35t-36 56.5q-2 6 -4 17t-3 26.5t-1 90.5v203q0 51 -6 79h95q-3 -6 -5 -33.5t-2 -45.5v-258q0 -56 29.5 -85.5t103.5 -29.5q146 0 146 122v255q0 18 -2 43.5t-5 31.5h94q-5 -21 -5 -75v-345q0 -59 5 -87zM452 631
l-42 -53l-140 102l-114 -100l-32 35l161 142z" />
    <glyph glyph-name="udieresis" unicode="&#xfc;" horiz-adv-x="577" 
d="M513 0h-86l-1 34q-57 -47 -174 -47q-44 0 -81 12.5t-62 35t-36 56.5q-2 6 -4 17t-3 26.5t-1 90.5v203q0 51 -6 79h95q-3 -6 -5 -33.5t-2 -45.5v-258q0 -56 29.5 -85.5t103.5 -29.5q146 0 146 122v255q0 18 -2 43.5t-5 31.5h94q-5 -21 -5 -75v-345q0 -59 5 -87zM428 650
q0 -20 -14 -34t-34 -14t-35 14t-15 34t15 34.5t35 14.5t34 -14.5t14 -34.5zM243 650q0 -20 -14.5 -34t-33.5 -14q-20 0 -34.5 14t-14.5 34t14.5 34.5t34.5 14.5q19 0 33.5 -14.5t14.5 -34.5z" />
    <glyph glyph-name="yacute" unicode="&#xfd;" horiz-adv-x="562" 
d="M549 507q-3 -4 -9.5 -16.5t-33.5 -76.5l-285 -647h-104q18 22 24 32t16 32l78 174l-183 419q-13 31 -25 53t-18 30h112q1 -26 20 -73l140 -337q97 224 133 322q23 59 23 88h112zM444 693l-221 -122l-13 17l177 180z" />
    <glyph glyph-name="thorn" unicode="&#xfe;" horiz-adv-x="594" 
d="M557 260q0 -53 -16 -102.5t-49 -88t-83 -60.5t-114 -22q-35 0 -69 7.5t-75 35.5v-263h-90q7 11 7 66v827q0 61 -8 77h91v-262q62 42 148 42q124 0 191 -66.5t67 -190.5zM467 262q0 36 -10 69.5t-30.5 59.5t-53.5 41t-77 15q-84 0 -145 -59v-186q0 -146 146 -146
q32 0 63 11t57.5 40t38 71.5t11.5 83.5z" />
    <glyph glyph-name="ydieresis" unicode="&#xff;" horiz-adv-x="562" 
d="M549 507q-3 -4 -9.5 -16.5t-33.5 -76.5l-285 -647h-104q18 22 24 32t16 32l78 174l-183 419q-13 31 -25 53t-18 30h112q1 -26 20 -73l140 -337q97 224 133 322q23 59 23 88h112zM421 650q0 -20 -14 -34t-34 -14t-35 14t-15 34t15 34.5t35 14.5t34 -14.5t14 -34.5z
M236 650q0 -20 -14.5 -34t-33.5 -14q-20 0 -34.5 14t-14.5 34t14.5 34.5t34.5 14.5q19 0 33.5 -14.5t14.5 -34.5z" />
    <glyph glyph-name="Amacron" unicode="&#x100;" horiz-adv-x="656" 
d="M648 0h-111q-4 24 -9 40.5t-17 48.5l-55 147h-256l-55 -148q-17 -45 -24 -88h-112q14 16 42 94l191 514q24 66 26 82h124q2 -19 24 -81l188 -512q32 -85 44 -97zM430 314l-104 273l-101 -273h205zM464 801h-274v63h274v-63z" />
    <glyph glyph-name="amacron" unicode="&#x101;" horiz-adv-x="537" 
d="M484 0h-93v47q-39 -32 -81 -46t-96 -14q-56 0 -97.5 22t-63.5 58t-22 84q0 35 10 63t33 51.5t61 38.5t84.5 21t106 7t64.5 1v52q0 38 -33 51.5t-94 13.5q-93 0 -190 -47v84q128 31 196 31q41 0 86 -8.5t72.5 -27.5t37.5 -43q1 -3 2.5 -8.5t2.5 -15.5t1 -22v-24.5v-15.5
v-253q0 -71 13 -100zM390 193v67q-40 3 -89 3q-70 0 -107 -10.5t-55 -35t-18 -59.5q0 -46 31 -73.5t83 -27.5q28 0 64.5 12t63.5 44.5t27 79.5zM406 618h-274v63h274v-63z" />
    <glyph glyph-name="Abreve" unicode="&#x102;" horiz-adv-x="656" 
d="M648 0h-111q-4 24 -9 40.5t-17 48.5l-55 147h-256l-55 -148q-17 -45 -24 -88h-112q14 16 42 94l191 514q24 66 26 82h124q2 -19 24 -81l188 -512q32 -85 44 -97zM430 314l-104 273l-101 -273h205zM477 893q-13 -38 -29.5 -65t-46 -45t-74.5 -18q-53 0 -89 28t-61 100
l34 14q18 -42 46.5 -59t69.5 -17t70.5 17.5t45.5 58.5z" />
    <glyph glyph-name="abreve" unicode="&#x103;" horiz-adv-x="537" 
d="M484 0h-93v47q-39 -32 -81 -46t-96 -14q-56 0 -97.5 22t-63.5 58t-22 84q0 35 10 63t33 51.5t61 38.5t84.5 21t106 7t64.5 1v52q0 38 -33 51.5t-94 13.5q-93 0 -190 -47v84q128 31 196 31q41 0 86 -8.5t72.5 -27.5t37.5 -43q1 -3 2.5 -8.5t2.5 -15.5t1 -22v-24.5v-15.5
v-253q0 -71 13 -100zM390 193v67q-40 3 -89 3q-70 0 -107 -10.5t-55 -35t-18 -59.5q0 -46 31 -73.5t83 -27.5q28 0 64.5 12t63.5 44.5t27 79.5zM419 710q-13 -38 -29.5 -65t-46 -45t-74.5 -18q-53 0 -89 28t-61 100l34 14q18 -42 46.5 -59t69.5 -17t70.5 17.5t45.5 58.5z
" />
    <glyph glyph-name="Aogonek" unicode="&#x104;" horiz-adv-x="656" 
d="M656 -131q-55 -38 -70.5 -46t-30.5 -11.5t-28 -3.5q-43 0 -67 22t-24 55q0 28 23.5 58t76.5 57h1q-4 24 -9 40.5t-17 48.5l-55 147h-256l-55 -148q-17 -45 -24 -88h-112q14 16 42 94l191 514q24 66 26 82h124q2 -19 24 -81l188 -512q32 -85 44 -97q-29 -1 -63 -12.5
t-58 -37t-24 -47.5q0 -43 50 -43q22 0 44.5 10t40.5 25zM430 314l-104 273l-101 -273h205z" />
    <glyph glyph-name="aogonek" unicode="&#x105;" horiz-adv-x="537" 
d="M511 -131q-40 -28 -51 -35t-31.5 -16.5t-45.5 -9.5q-43 0 -67 22t-24 55q0 28 23.5 58t75.5 57v47q-39 -32 -81 -46t-96 -14q-56 0 -97.5 22t-63.5 58t-22 84q0 35 10 63t32.5 51.5t60.5 38.5t85 21t106.5 7t64.5 1v52q0 38 -33 51.5t-94 13.5q-93 0 -190 -47v84
q128 31 196 31q41 0 86 -8.5t72.5 -27.5t37.5 -43q1 -3 2.5 -8.5t2.5 -15.5t1 -22v-24.5v-15.5v-253q0 -71 13 -100q-21 -1 -49.5 -13t-52.5 -37.5t-24 -46.5q0 -43 51 -43q42 0 85 35zM390 193v67q-40 3 -89 3q-70 0 -107 -10.5t-55 -35t-18 -59.5q0 -46 31 -73.5t83 -27.5
q28 0 64.5 12t63.5 44.5t27 79.5z" />
    <glyph glyph-name="Cacute" unicode="&#x106;" horiz-adv-x="702" 
d="M660 574q-9 7 -52 25q-47 17 -105.5 26.5t-103.5 9.5q-126 0 -195 -61.5t-69 -188.5q0 -71 22 -132t64 -105.5t101.5 -69t131.5 -24.5q51 0 108.5 15.5t96.5 42.5v-88q-45 -24 -103.5 -35.5t-115.5 -11.5q-117 0 -210 46.5t-143 141.5q-48 89 -48 207q0 78 24.5 142
t70 108t109.5 67.5t141 23.5q113 0 276 -42v-97zM542 876l-221 -122l-13 17l177 180z" />
    <glyph glyph-name="cacute" unicode="&#x107;" horiz-adv-x="526" 
d="M492 24q-63 -37 -168 -37q-63 0 -117 18.5t-93 55t-60 89.5t-21 118q0 119 68.5 184t186.5 65q82 0 203 -33v-88q-76 51 -190 51q-84 0 -132 -42.5t-48 -126.5q0 -38 10.5 -77t39.5 -74.5t75.5 -52.5t96.5 -17q79 0 149 47v-80zM434 693l-221 -122l-13 17l177 180z" />
    <glyph glyph-name="Ccircumflex" unicode="&#x108;" horiz-adv-x="702" 
d="M660 574q-9 7 -52 25q-47 17 -105.5 26.5t-103.5 9.5q-126 0 -195 -61.5t-69 -188.5q0 -71 22 -132t64 -105.5t101.5 -69t131.5 -24.5q51 0 108.5 15.5t96.5 42.5v-88q-45 -24 -103.5 -35.5t-115.5 -11.5q-117 0 -210 46.5t-143 141.5q-48 89 -48 207q0 78 24.5 142
t70 108t109.5 67.5t141 23.5q113 0 276 -42v-97zM569 814l-42 -53l-140 102l-114 -100l-32 35l161 142z" />
    <glyph glyph-name="ccircumflex" unicode="&#x109;" horiz-adv-x="526" 
d="M492 24q-63 -37 -168 -37q-63 0 -117 18.5t-93 55t-60 89.5t-21 118q0 119 68.5 184t186.5 65q82 0 203 -33v-88q-76 51 -190 51q-84 0 -132 -42.5t-48 -126.5q0 -38 10.5 -77t39.5 -74.5t75.5 -52.5t96.5 -17q79 0 149 47v-80zM469 631l-42 -53l-140 102l-114 -100
l-32 35l161 142z" />
    <glyph glyph-name="Cdotaccent" unicode="&#x10a;" horiz-adv-x="702" 
d="M660 574q-9 7 -52 25q-47 17 -105.5 26.5t-103.5 9.5q-126 0 -195 -61.5t-69 -188.5q0 -71 22 -132t64 -105.5t101.5 -69t131.5 -24.5q51 0 108.5 15.5t96.5 42.5v-88q-45 -24 -103.5 -35.5t-115.5 -11.5q-117 0 -210 46.5t-143 141.5q-48 89 -48 207q0 78 24.5 142
t70 108t109.5 67.5t141 23.5q113 0 276 -42v-97zM456 837q0 -21 -15 -36t-37 -15t-37 15t-15 36q0 22 15.5 37.5t36.5 15.5t36.5 -15.5t15.5 -37.5z" />
    <glyph glyph-name="cdotaccent" unicode="&#x10b;" horiz-adv-x="526" 
d="M492 24q-63 -37 -168 -37q-63 0 -117 18.5t-93 55t-60 89.5t-21 118q0 119 68.5 184t186.5 65q82 0 203 -33v-88q-76 51 -190 51q-84 0 -132 -42.5t-48 -126.5q0 -38 10.5 -77t39.5 -74.5t75.5 -52.5t96.5 -17q79 0 149 47v-80zM355 654q0 -21 -15 -36t-37 -15t-37 15
t-15 36q0 22 15.5 37.5t36.5 15.5t36.5 -15.5t15.5 -37.5z" />
    <glyph glyph-name="Ccaron" unicode="&#x10c;" horiz-adv-x="702" 
d="M660 574q-9 7 -52 25q-47 17 -105.5 26.5t-103.5 9.5q-126 0 -195 -61.5t-69 -188.5q0 -71 22 -132t64 -105.5t101.5 -69t131.5 -24.5q51 0 108.5 15.5t96.5 42.5v-88q-45 -24 -103.5 -35.5t-115.5 -11.5q-117 0 -210 46.5t-143 141.5q-48 89 -48 207q0 78 24.5 142
t70 108t109.5 67.5t141 23.5q113 0 276 -42v-97zM568 895l-161 -143l-167 126l42 53l140 -102l115 100z" />
    <glyph glyph-name="ccaron" unicode="&#x10d;" horiz-adv-x="526" 
d="M492 24q-63 -37 -168 -37q-63 0 -117 18.5t-93 55t-60 89.5t-21 118q0 119 68.5 184t186.5 65q82 0 203 -33v-88q-76 51 -190 51q-84 0 -132 -42.5t-48 -126.5q0 -38 10.5 -77t39.5 -74.5t75.5 -52.5t96.5 -17q79 0 149 47v-80zM469 712l-161 -143l-167 126l42 53
l140 -102l115 100z" />
    <glyph glyph-name="Dcaron" unicode="&#x10e;" horiz-adv-x="751" 
d="M712 362q0 -62 -17.5 -121t-50.5 -108q-96 -138 -331 -138l-211 5h-27q4 15 4 37v610q0 26 -4 43q62 0 150.5 5.5t124.5 5.5q81 0 138 -14q71 -18 120 -59.5t76.5 -107.5t27.5 -158zM617 353q0 134 -72 205t-205 71q-100 0 -167 -12v-539q68 -11 131 -11q74 0 131.5 15.5
t98 49t62 89t21.5 132.5zM517 895l-161 -143l-167 126l42 53l140 -102l115 100z" />
    <glyph glyph-name="dcaron" unicode="&#x10f;" horiz-adv-x="620" 
d="M527 0h-81l-7 36q-64 -49 -151 -49q-119 0 -185 65.5t-66 187.5q0 29 6 65t22 71.5t46 67t78.5 51.5t107.5 20q27 0 64.5 -9.5t74.5 -36.5v268h90q-7 -30 -7 -70v-586q0 -45 8 -81zM436 116v168q0 65 -11 91q-6 17 -23.5 34t-48 26.5t-61.5 9.5q-53 0 -89.5 -24.5
t-57 -69.5t-20.5 -107q0 -29 7 -60t25.5 -59t52 -47.5t83.5 -19.5q88 0 143 58zM641 625q0 -42 -19.5 -67.5t-52.5 -32.5v27q13 6 21.5 18t8.5 44h-33v76h75v-65z" />
    <glyph glyph-name="Dcroat" unicode="&#x110;" horiz-adv-x="751" 
d="M712 362q0 -62 -17.5 -121t-50.5 -108q-96 -138 -331 -138l-211 5h-27q4 15 4 37v284h-35q-44 -2 -55 -8v84q8 -5 66 -5h24v255q0 26 -4 43q62 0 150.5 5.5t124.5 5.5q81 0 138 -14q71 -18 120 -59.5t76.5 -107.5t27.5 -158zM617 353q0 134 -72 205t-205 71
q-100 0 -167 -12v-225h113q60 0 66 5v-84q-5 2 -22 5t-33 3h-124v-243q68 -11 131 -11q74 0 131.5 15.5t98 49t62 89t21.5 132.5z" />
    <glyph glyph-name="dcroat" unicode="&#x111;" horiz-adv-x="588" 
d="M527 0h-81l-7 36q-64 -49 -151 -49q-119 0 -185 65.5t-66 187.5q0 29 6 65t22 71.5t46 67t78.5 51.5t107.5 20q27 0 64.5 -9.5t74.5 -36.5v107h-80q-15 0 -41.5 -2.5t-30.5 -5.5v78q2 -2 23.5 -4.5t43.5 -2.5h85v98h90q-7 -30 -7 -70v-28h15q13 0 38 2t29 5v-78
q-4 3 -26.5 5.5t-47.5 2.5h-8v-495q0 -45 8 -81zM436 116v168q0 65 -11 91q-6 17 -23.5 34t-48 26.5t-61.5 9.5q-53 0 -89.5 -24.5t-57 -69.5t-20.5 -107q0 -29 7 -60t25.5 -59t52 -47.5t83.5 -19.5q88 0 143 58z" />
    <glyph glyph-name="Emacron" unicode="&#x112;" horiz-adv-x="513" 
d="M466 0h-392q5 14 5 39v594q0 42 -5 57h372v-89q-18 6 -79 6h-194v-210h183q41 0 60 3v-89q-18 4 -31 4h-212v-233h222q51 0 71 5v-87zM394 801h-274v63h274v-63z" />
    <glyph glyph-name="emacron" unicode="&#x113;" horiz-adv-x="581" 
d="M550 243h-427q0 -90 57 -137.5t153 -47.5q30 0 73 11t87 39v-86q-41 -16 -86.5 -25.5t-86.5 -9.5q-45 0 -93.5 10.5t-86 35t-60.5 55t-35.5 72t-12.5 90.5q0 58 17.5 107.5t51 85t82 55t108.5 19.5q56 0 98 -16t74.5 -42.5t58 -76t27.5 -118.5zM450 313q-4 29 -21 61
t-54 53t-85 21q-42 0 -74 -14t-56 -44.5t-32 -76.5h322zM431 618h-274v63h274v-63z" />
    <glyph glyph-name="Ebreve" unicode="&#x114;" horiz-adv-x="513" 
d="M466 0h-392q5 14 5 39v594q0 42 -5 57h372v-89q-18 6 -79 6h-194v-210h183q41 0 60 3v-89q-18 4 -31 4h-212v-233h222q51 0 71 5v-87zM407 893q-13 -38 -29.5 -65t-46 -45t-74.5 -18q-53 0 -89 28t-61 100l34 14q18 -42 46.5 -59t69.5 -17t70.5 17.5t45.5 58.5z" />
    <glyph glyph-name="ebreve" unicode="&#x115;" horiz-adv-x="581" 
d="M550 243h-427q0 -90 57 -137.5t153 -47.5q30 0 73 11t87 39v-86q-41 -16 -86.5 -25.5t-86.5 -9.5q-45 0 -93.5 10.5t-86 35t-60.5 55t-35.5 72t-12.5 90.5q0 58 17.5 107.5t51 85t82 55t108.5 19.5q56 0 98 -16t74.5 -42.5t58 -76t27.5 -118.5zM450 313q-4 29 -21 61
t-54 53t-85 21q-42 0 -74 -14t-56 -44.5t-32 -76.5h322zM443 710q-13 -38 -29.5 -65t-46 -45t-74.5 -18q-53 0 -89 28t-61 100l34 14q18 -42 46.5 -59t69.5 -17t70.5 17.5t45.5 58.5z" />
    <glyph glyph-name="Edotaccent" unicode="&#x116;" horiz-adv-x="513" 
d="M466 0h-392q5 14 5 39v594q0 42 -5 57h372v-89q-18 6 -79 6h-194v-210h183q41 0 60 3v-89q-18 4 -31 4h-212v-233h222q51 0 71 5v-87zM309 837q0 -21 -15 -36t-37 -15t-37 15t-15 36q0 22 15.5 37.5t36.5 15.5t36.5 -15.5t15.5 -37.5z" />
    <glyph glyph-name="edotaccent" unicode="&#x117;" horiz-adv-x="581" 
d="M550 243h-427q0 -90 57 -137.5t153 -47.5q30 0 73 11t87 39v-86q-41 -16 -86.5 -25.5t-86.5 -9.5q-45 0 -93.5 10.5t-86 35t-60.5 55t-35.5 72t-12.5 90.5q0 58 17.5 107.5t51 85t82 55t108.5 19.5q56 0 98 -16t74.5 -42.5t58 -76t27.5 -118.5zM450 313q-4 29 -21 61
t-54 53t-85 21q-42 0 -74 -14t-56 -44.5t-32 -76.5h322zM346 654q0 -21 -15 -36t-37 -15t-37 15t-15 36q0 22 15.5 37.5t36.5 15.5t36.5 -15.5t15.5 -37.5z" />
    <glyph glyph-name="Eogonek" unicode="&#x118;" horiz-adv-x="513" 
d="M485 -131q-40 -28 -51 -35t-31.5 -16.5t-45.5 -9.5q-43 0 -67 22t-24 55q0 19 11.5 41t36.5 41t52 33h-292q5 14 5 42v605q0 28 -5 43h372v-89q-18 6 -79 6h-194v-210h183q41 0 60 3v-89q-18 4 -31 4h-212v-233h222q51 0 71 5v-87q-26 -1 -57.5 -13t-53.5 -37t-22 -47
q0 -43 50 -43q21 0 44 10t41 25z" />
    <glyph glyph-name="eogonek" unicode="&#x119;" horiz-adv-x="581" 
d="M490 -131q-55 -38 -70.5 -46t-30 -11.5t-27.5 -3.5q-43 0 -67.5 22t-24.5 55q0 57 79 104l-29 -2q-95 0 -159 33.5t-96.5 90.5t-32.5 139q0 58 17.5 107.5t51 85t82 55t108.5 19.5q57 0 104.5 -18.5t81 -53t52.5 -82t20 -103.5l1 -17h-427q0 -59 24.5 -99.5t71.5 -63
t115 -22.5q30 0 72 11t87 39v-86q-1 -1 -4.5 -2t-39 -14.5t-60.5 -29.5t-38.5 -33.5t-13.5 -39.5q0 -17 11 -30t40 -13q21 0 44 10t41 25zM450 313q-4 29 -21 61t-54 53t-85 21q-50 0 -87 -20.5t-54 -53t-21 -61.5h322z" />
    <glyph glyph-name="Ecaron" unicode="&#x11a;" horiz-adv-x="513" 
d="M466 0h-392q5 14 5 39v594q0 42 -5 57h372v-89q-18 6 -79 6h-194v-210h183q41 0 60 3v-89q-18 4 -31 4h-212v-233h222q51 0 71 5v-87zM421 895l-161 -143l-167 126l42 53l140 -102l115 100z" />
    <glyph glyph-name="ecaron" unicode="&#x11b;" horiz-adv-x="581" 
d="M550 243h-427q0 -90 57 -137.5t153 -47.5q30 0 73 11t87 39v-86q-41 -16 -86.5 -25.5t-86.5 -9.5q-45 0 -93.5 10.5t-86 35t-60.5 55t-35.5 72t-12.5 90.5q0 58 17.5 107.5t51 85t82 55t108.5 19.5q56 0 98 -16t74.5 -42.5t58 -76t27.5 -118.5zM450 313q-4 29 -21 61
t-54 53t-85 21q-42 0 -74 -14t-56 -44.5t-32 -76.5h322zM457 712l-161 -143l-167 126l42 53l140 -102l115 100z" />
    <glyph glyph-name="Gcircumflex" unicode="&#x11c;" horiz-adv-x="747" 
d="M687 342q-8 -16 -8 -83v-228q-114 -54 -242 -54q-86 0 -154 23.5t-117 65.5t-81 103q-18 35 -32 83t-14 119q0 77 24 141.5t69 109t109 68t141 23.5q120 0 278 -43v-97q-2 1 -8.5 5.5t-26 13t-21.5 9.5q-46 16 -103.5 25t-102.5 9q-128 0 -195.5 -63.5t-67.5 -191.5
q0 -70 22.5 -130.5t64 -104t100.5 -67.5t130 -24q61 0 134 22v183q0 68 -8 83h109zM560 814l-42 -53l-140 102l-114 -100l-32 35l161 142z" />
    <glyph glyph-name="gcircumflex" unicode="&#x11d;" horiz-adv-x="541" 
d="M544 436q-26 13 -51 13q-27 0 -53 -15q38 -55 38 -115q0 -21 -5 -48t-19 -53t-39 -49t-63.5 -37.5t-83.5 -14.5q-15 0 -35.5 2.5t-63.5 16.5q-13 -1 -21.5 -13t-8.5 -24q0 -15 15 -23t34 -10.5t34 -3t44 -0.5q81 0 134.5 -15.5t79 -45t25.5 -69.5q0 -47 -21.5 -81
t-58 -53.5t-81.5 -27.5t-86 -8q-114 0 -179.5 34.5t-65.5 105.5q0 81 103 112q-24 11 -39 29.5t-15 41.5q0 21 11.5 39.5t45.5 39.5q-35 26 -53 65t-18 85q0 34 10.5 69t36 65t67 49.5t97.5 19.5q88 0 148 -46q46 46 137 46v-81zM392 320q0 45 -22 76t-52.5 42.5t-58.5 11.5
q-57 0 -91.5 -37.5t-34.5 -97.5q0 -29 12 -59t45 -51t76 -21q29 0 58 12t48.5 46t19.5 78zM420 -93q0 42 -35 63t-125 21q-159 0 -159 -85q0 -41 37.5 -62.5t126.5 -21.5q35 0 71.5 9t60 27.5t23.5 48.5zM429 631l-42 -53l-140 102l-114 -100l-32 35l161 142z" />
    <glyph glyph-name="Gbreve" unicode="&#x11e;" horiz-adv-x="747" 
d="M687 342q-8 -16 -8 -83v-228q-114 -54 -242 -54q-86 0 -154 23.5t-117 65.5t-81 103q-18 35 -32 83t-14 119q0 77 24 141.5t69 109t109 68t141 23.5q120 0 278 -43v-97q-2 1 -8.5 5.5t-26 13t-21.5 9.5q-46 16 -103.5 25t-102.5 9q-128 0 -195.5 -63.5t-67.5 -191.5
q0 -70 22.5 -130.5t64 -104t100.5 -67.5t130 -24q61 0 134 22v183q0 68 -8 83h109zM546 893q-13 -38 -29.5 -65t-46 -45t-74.5 -18q-53 0 -89 28t-61 100l34 14q18 -42 46.5 -59t69.5 -17t70.5 17.5t45.5 58.5z" />
    <glyph glyph-name="gbreve" unicode="&#x11f;" horiz-adv-x="541" 
d="M544 436q-26 13 -51 13q-27 0 -53 -15q38 -55 38 -115q0 -21 -5 -48t-19 -53t-39 -49t-63.5 -37.5t-83.5 -14.5q-15 0 -35.5 2.5t-63.5 16.5q-13 -1 -21.5 -13t-8.5 -24q0 -15 15 -23t34 -10.5t34 -3t44 -0.5q81 0 134.5 -15.5t79 -45t25.5 -69.5q0 -47 -21.5 -81
t-58 -53.5t-81.5 -27.5t-86 -8q-114 0 -179.5 34.5t-65.5 105.5q0 81 103 112q-24 11 -39 29.5t-15 41.5q0 21 11.5 39.5t45.5 39.5q-35 26 -53 65t-18 85q0 34 10.5 69t36 65t67 49.5t97.5 19.5q88 0 148 -46q46 46 137 46v-81zM392 320q0 45 -22 76t-52.5 42.5t-58.5 11.5
q-57 0 -91.5 -37.5t-34.5 -97.5q0 -29 12 -59t45 -51t76 -21q29 0 58 12t48.5 46t19.5 78zM420 -93q0 42 -35 63t-125 21q-159 0 -159 -85q0 -41 37.5 -62.5t126.5 -21.5q35 0 71.5 9t60 27.5t23.5 48.5zM414 710q-13 -38 -29.5 -65t-46 -45t-74.5 -18q-53 0 -89 28t-61 100
l34 14q18 -42 46.5 -59t69.5 -17t70.5 17.5t45.5 58.5z" />
    <glyph glyph-name="Gdotaccent" unicode="&#x120;" horiz-adv-x="747" 
d="M687 342q-8 -16 -8 -83v-228q-114 -54 -242 -54q-86 0 -154 23.5t-117 65.5t-81 103q-18 35 -32 83t-14 119q0 77 24 141.5t69 109t109 68t141 23.5q120 0 278 -43v-97q-2 1 -8.5 5.5t-26 13t-21.5 9.5q-46 16 -103.5 25t-102.5 9q-128 0 -195.5 -63.5t-67.5 -191.5
q0 -70 22.5 -130.5t64 -104t100.5 -67.5t130 -24q61 0 134 22v183q0 68 -8 83h109zM448 837q0 -21 -15 -36t-37 -15t-37 15t-15 36q0 22 15.5 37.5t36.5 15.5t36.5 -15.5t15.5 -37.5z" />
    <glyph glyph-name="gdotaccent" unicode="&#x121;" horiz-adv-x="541" 
d="M544 436q-26 13 -51 13q-27 0 -53 -15q38 -55 38 -115q0 -21 -5 -48t-19 -53t-39 -49t-63.5 -37.5t-83.5 -14.5q-15 0 -35.5 2.5t-63.5 16.5q-13 -1 -21.5 -13t-8.5 -24q0 -15 15 -23t34 -10.5t34 -3t44 -0.5q81 0 134.5 -15.5t79 -45t25.5 -69.5q0 -47 -21.5 -81
t-58 -53.5t-81.5 -27.5t-86 -8q-114 0 -179.5 34.5t-65.5 105.5q0 81 103 112q-24 11 -39 29.5t-15 41.5q0 21 11.5 39.5t45.5 39.5q-35 26 -53 65t-18 85q0 34 10.5 69t36 65t67 49.5t97.5 19.5q88 0 148 -46q46 46 137 46v-81zM392 320q0 45 -22 76t-52.5 42.5t-58.5 11.5
q-57 0 -91.5 -37.5t-34.5 -97.5q0 -29 12 -59t45 -51t76 -21q29 0 58 12t48.5 46t19.5 78zM420 -93q0 42 -35 63t-125 21q-159 0 -159 -85q0 -41 37.5 -62.5t126.5 -21.5q35 0 71.5 9t60 27.5t23.5 48.5zM316 654q0 -21 -15 -36t-37 -15t-37 15t-15 36q0 22 15.5 37.5
t36.5 15.5t36.5 -15.5t15.5 -37.5z" />
    <glyph glyph-name="Gcommaaccent" unicode="&#x122;" horiz-adv-x="747" 
d="M687 342q-8 -16 -8 -83v-228q-114 -54 -242 -54q-86 0 -154 23.5t-117 65.5t-81 103q-18 35 -32 83t-14 119q0 77 24 141.5t69 109t109 68t141 23.5q120 0 278 -43v-97q-2 1 -8.5 5.5t-26 13t-21.5 9.5q-46 16 -103.5 25t-102.5 9q-128 0 -195.5 -63.5t-67.5 -191.5
q0 -70 22.5 -130.5t64 -104t100.5 -67.5t130 -24q61 0 134 22v183q0 68 -8 83h109zM464 -96l-110 -163l-29 15l68 185z" />
    <glyph glyph-name="gcommaaccent" unicode="&#x123;" horiz-adv-x="541" 
d="M544 436q-26 13 -51 13q-27 0 -53 -15q38 -55 38 -115q0 -21 -5 -48t-19 -53t-39 -49t-63.5 -37.5t-83.5 -14.5q-15 0 -35.5 2.5t-63.5 16.5q-13 -1 -21.5 -13t-8.5 -24q0 -15 15 -23t34 -10.5t34 -3t44 -0.5q81 0 134.5 -15.5t79 -45t25.5 -69.5q0 -47 -21.5 -81
t-58 -53.5t-81.5 -27.5t-86 -8q-114 0 -179.5 34.5t-65.5 105.5q0 81 103 112q-24 11 -39 29.5t-15 41.5q0 21 11.5 39.5t45.5 39.5q-35 26 -53 65t-18 85q0 34 10.5 69t36 65t67 49.5t97.5 19.5q88 0 148 -46q46 46 137 46v-81zM392 320q0 45 -22 76t-52.5 42.5t-58.5 11.5
q-57 0 -91.5 -37.5t-34.5 -97.5q0 -29 12 -59t45 -51t76 -21q29 0 58 12t48.5 46t19.5 78zM420 -93q0 42 -35 63t-125 21q-159 0 -159 -85q0 -41 37.5 -62.5t126.5 -21.5q35 0 71.5 9t60 27.5t23.5 48.5zM307 578h-85v69q0 44 22.5 71.5t57.5 34.5v-28q-35 -16 -33 -66h38
v-81z" />
    <glyph glyph-name="Hcircumflex" unicode="&#x124;" horiz-adv-x="741" 
d="M666 690q-6 -22 -6 -89v-528q0 -52 4 -73h-102q2 3 3 27t1 43v245h-393v-232q0 -70 5 -83h-104q5 17 5 79v533q0 61 -6 78h105q-5 -20 -5 -70v-223h393v208q0 56 -4 85h104zM535 814l-42 -53l-140 102l-114 -100l-32 35l161 142z" />
    <glyph glyph-name="hcircumflex" unicode="&#x125;" horiz-adv-x="571" 
d="M512 0h-96q6 18 6 68v268q0 62 -30 87.5t-100 25.5q-69 0 -103.5 -22.5t-36.5 -70.5l-1 -50v-246q0 -46 6 -60h-96q7 23 7 46v629q0 44 -7 62h90v-268q55 48 155 48q81 0 129 -27q20 -11 36 -30.5t24 -42.5q10 -29 10 -101v-257q0 -41 7 -59zM277 831l-42 -53l-140 102
l-114 -100l-32 35l161 142z" />
    <glyph glyph-name="Itilde" unicode="&#x128;" horiz-adv-x="257" 
d="M182 0h-107q6 27 6 79v531q0 52 -6 80h106q-6 -57 -6 -80v-531q0 -49 7 -79zM310 825q-1 -1 -26.5 -17t-41.5 -23.5t-29.5 -11t-25.5 -3.5q-23 0 -73.5 29t-75.5 29q-8 0 -20 -4t-30 -14.5t-19 -11.5l-21 33q1 1 26.5 17t41.5 23.5t29.5 11t25.5 3.5q23 0 73.5 -29
t76.5 -29q14 0 29 7.5t40 22.5z" />
    <glyph glyph-name="itilde" unicode="&#x129;" horiz-adv-x="220" 
d="M292 642q-1 -1 -26.5 -17t-41.5 -23.5t-29.5 -11t-25.5 -3.5q-23 0 -73.5 29t-75.5 29q-8 0 -20 -4t-30 -14.5t-19 -11.5l-21 33q1 1 26.5 17t41.5 23.5t29.5 11t25.5 3.5q23 0 73.5 -29t76.5 -29q14 0 29 7.5t40 22.5zM156 0h-92q5 19 5 75v361q0 44 -5 71h92
q-5 -25 -5 -71v-361q0 -54 5 -75z" />
    <glyph glyph-name="Imacron" unicode="&#x12a;" horiz-adv-x="257" 
d="M182 0h-107q6 27 6 79v531q0 52 -6 80h106q-6 -57 -6 -80v-531q0 -49 7 -79zM266 801h-274v63h274v-63z" />
    <glyph glyph-name="imacron" unicode="&#x12b;" horiz-adv-x="220" 
d="M248 618h-274v63h274v-63zM156 0h-92q5 19 5 75v361q0 44 -5 71h92q-5 -25 -5 -71v-361q0 -54 5 -75z" />
    <glyph glyph-name="Ibreve" unicode="&#x12c;" horiz-adv-x="257" 
d="M182 0h-107q6 27 6 79v531q0 52 -6 80h106q-6 -57 -6 -80v-531q0 -49 7 -79zM279 893q-13 -38 -29.5 -65t-46 -45t-74.5 -18q-53 0 -89 28t-61 100l34 14q18 -42 46.5 -59t69.5 -17t70.5 17.5t45.5 58.5z" />
    <glyph glyph-name="ibreve" unicode="&#x12d;" horiz-adv-x="220" 
d="M261 710q-13 -38 -29.5 -65t-46 -45t-74.5 -18q-53 0 -89 28t-61 100l34 14q18 -42 46.5 -59t69.5 -17t70.5 17.5t45.5 58.5zM156 0h-92q5 19 5 75v361q0 44 -5 71h92q-5 -25 -5 -71v-361q0 -54 5 -75z" />
    <glyph glyph-name="Iogonek" unicode="&#x12e;" horiz-adv-x="257" 
d="M242 -131q-40 -28 -51 -35t-31.5 -16.5t-45.5 -9.5q-43 0 -67 22t-24 55q0 28 23.5 58t75.5 57h-47q6 27 6 64v546q0 52 -6 80h106l-6 -66v-545q0 -49 7 -79q-14 -3 -40.5 -23.5t-39.5 -40.5t-13 -33q0 -43 51 -43q42 0 85 35z" />
    <glyph glyph-name="iogonek" unicode="&#x12f;" horiz-adv-x="220" 
d="M64 0q5 19 5 75v361q0 44 -5 71h92q-5 -25 -5 -71v-361q0 -54 5 -75q-9 -1 -29 -14.5t-41.5 -38t-21.5 -44.5q0 -17 10.5 -30.5t38.5 -13.5q40 0 85 34l17 -24q-49 -37 -76 -49t-51 -12q-43 0 -67 22t-24 55q0 28 22.5 56t76.5 59h-32zM153 606h-86v84h86v-84z" />
    <glyph glyph-name="Idotaccent" unicode="&#x130;" horiz-adv-x="257" 
d="M182 0h-107q6 27 6 79v531q0 52 -6 80h106q-6 -57 -6 -80v-531q0 -49 7 -79zM181 837q0 -21 -15 -36t-37 -15t-37 15t-15 36q0 22 15.5 37.5t36.5 15.5t36.5 -15.5t15.5 -37.5z" />
    <glyph glyph-name="dotlessi" unicode="&#x131;" horiz-adv-x="220" 
d="M156 0h-92q5 19 5 75v361q0 44 -5 71h92q-5 -25 -5 -71v-361q0 -54 5 -75z" />
    <glyph glyph-name="IJ" unicode="&#x132;" horiz-adv-x="614" 
d="M182 0h-107q6 27 6 79v531q0 52 -6 80h106q-6 -57 -6 -80v-531q0 -49 7 -79zM542 690q-6 -15 -6 -76v-454q0 -60 -7 -84q-9 -37 -37.5 -59.5t-61.5 -29.5t-58 -7q-66 0 -115 23v93q22 -17 48.5 -27.5t49.5 -10.5q48 0 67.5 17.5t19.5 61.5v477q0 46 -5 76h105z" />
    <glyph glyph-name="ij" unicode="&#x133;" horiz-adv-x="443" 
d="M153 606h-86v84h86v-84zM156 0h-92q5 19 5 75v361q0 44 -5 71h92q-5 -25 -5 -71v-361q0 -54 5 -75zM376 607h-85v83h85v-83zM379 507q-4 -36 -4 -71v-406q0 -93 -41.5 -139.5t-129.5 -57.5v77q24 2 45.5 10.5t32 30t10.5 82.5v404q0 36 -4 70h91z" />
    <glyph glyph-name="Jcircumflex" unicode="&#x134;" horiz-adv-x="356" 
d="M285 690q-6 -15 -6 -76v-454q0 -60 -7 -84q-9 -37 -37.5 -59.5t-61.5 -29.5t-58 -7q-66 0 -115 23v93q22 -17 48.5 -27.5t49.5 -10.5q48 0 67.5 17.5t19.5 61.5v477q0 46 -5 76h105zM396 814l-42 -53l-140 102l-114 -100l-32 35l161 142z" />
    <glyph glyph-name="jcircumflex" unicode="&#x135;" horiz-adv-x="224" 
d="M159 507q-4 -36 -4 -71v-406q0 -93 -41.5 -139.5t-129.5 -57.5v77q24 2 45.5 10.5t32 30t10.5 82.5v404q0 36 -4 70h91zM276 631l-42 -53l-140 102l-114 -100l-32 35l161 142z" />
    <glyph glyph-name="Kcommaaccent" unicode="&#x136;" horiz-adv-x="581" 
d="M180 0h-108q7 30 7 79v532q0 72 -7 79h108q-7 -30 -7 -78v-244l210 268q23 30 36 54h119q-1 -1 -3 -3.5t-18 -19t-33 -36.5l-217 -265l242 -287q41 -49 73 -79h-134q-14 22 -51 67l-224 277v-265q0 -54 7 -79zM359 -74l-110 -163l-29 15l68 185z" />
    <glyph glyph-name="kcommaaccent" unicode="&#x137;" horiz-adv-x="499" 
d="M157 0h-96q7 14 7 66v597q0 44 -7 68h90v-460l215 236h116q-31 -23 -44 -35.5t-19 -19.5l-178 -186l159 -165l43 -44q36 -35 67 -57h-126l-233 250v-186q0 -52 6 -64zM310 -74l-110 -163l-29 15l68 185z" />
    <glyph glyph-name="Lacute" unicode="&#x139;" horiz-adv-x="466" 
d="M457 0h-385q7 30 7 74v542q0 54 -6 74h106q-6 -51 -6 -75v-533h232q40 0 52 6v-88zM334 876l-221 -122l-13 17l177 180z" />
    <glyph glyph-name="lacute" unicode="&#x13a;" horiz-adv-x="220" 
d="M158 0h-97q8 13 8 74v592q0 56 -8 71h90v-663q0 -62 7 -74zM299 901l-221 -122l-13 17l177 180z" />
    <glyph glyph-name="Lcommaaccent" unicode="&#x13b;" horiz-adv-x="466" 
d="M457 0h-385q7 30 7 74v542q0 54 -6 74h106q-6 -51 -6 -75v-533h232q40 0 52 6v-88zM316 -85l-110 -163l-29 15l68 185z" />
    <glyph glyph-name="lcommaaccent" unicode="&#x13c;" horiz-adv-x="220" 
d="M158 0h-97q8 13 8 74v592q0 56 -8 71h90v-663q0 -62 7 -74zM169 -74l-110 -163l-29 15l68 185z" />
    <glyph glyph-name="Lcaron" unicode="&#x13d;" horiz-adv-x="466" 
d="M457 0h-385q7 30 7 74v542q0 54 -6 74h106q-6 -51 -6 -75v-533h232q40 0 52 6v-88zM393 625q0 -42 -19.5 -67.5t-52.5 -32.5v27q13 6 21.5 18t8.5 44h-33v76h75v-65z" />
    <glyph glyph-name="lcaron" unicode="&#x13e;" horiz-adv-x="252" 
d="M158 0h-97q8 13 8 74v592q0 56 -8 71h90v-663q0 -62 7 -74zM273 625q0 -42 -19.5 -67.5t-52.5 -32.5v27q13 6 21.5 18t8.5 44h-33v76h75v-65z" />
    <glyph glyph-name="Ldot" unicode="&#x13f;" horiz-adv-x="466" 
d="M457 0h-385q7 30 7 74v542q0 54 -6 74h106q-6 -51 -6 -75v-533h232q40 0 52 6v-88zM402 302h-86v86h86v-86z" />
    <glyph glyph-name="ldot" unicode="&#x140;" horiz-adv-x="306" 
d="M158 0h-97q8 13 8 74v592q0 56 -8 71h90v-663q0 -62 7 -74zM306 302h-86v86h86v-86z" />
    <glyph glyph-name="Lslash" unicode="&#x141;" horiz-adv-x="466" 
d="M335 397q-7 3 -59 -20l-103 -50v-245h232q40 0 52 6v-88h-385q7 30 7 74v208l-18 -8q-21 -9 -36.5 -19.5t-16.5 -14.5l-36 75q3 -2 22.5 6t32.5 14l52 25v256q0 54 -6 74h106q-6 -51 -6 -75v-210l77 36q48 27 49 32z" />
    <glyph glyph-name="lslash" unicode="&#x142;" horiz-adv-x="220" 
d="M158 0h-97q8 13 8 74v240q-12 -6 -30 -17t-20 -15l-35 72q3 -2 22.5 6t32.5 14l30 14v278q0 56 -8 71h90v-310l1 1q48 27 49 32l35 -72q-5 2 -25 -6t-34 -15l-26 -13v-280q0 -62 7 -74z" />
    <glyph glyph-name="Nacute" unicode="&#x143;" horiz-adv-x="806" 
d="M733 0h-140q-21 34 -58 85l-364 502v-508q0 -64 6 -79h-103q0 3 1.5 12.5t2.5 24.5t1 43v513q0 72 -5 97h139q10 -21 59 -89l363 -500v498q0 66 -4 91h102q-5 -30 -5 -91v-500q0 -30 0.5 -50.5t2.5 -33t2 -15.5zM543 876l-221 -122l-13 17l177 180z" />
    <glyph glyph-name="nacute" unicode="&#x144;" horiz-adv-x="576" 
d="M515 0h-95q2 3 4 21t2 45v269q0 59 -26.5 86.5t-104.5 27.5q-63 0 -93 -16t-42 -41q-9 -24 -9 -86v-240q0 -18 2 -41t5 -25h-97q7 19 7 66v374q0 45 -6 67h88l1 -41q11 13 33.5 25.5t56.5 19t66 6.5t68 -6.5t61 -19.5q41 -20 59 -65q5 -12 9 -41t4 -118v-201
q0 -18 2 -40.5t5 -25.5zM411 693l-221 -122l-13 17l177 180z" />
    <glyph glyph-name="Ncommaaccent" unicode="&#x145;" horiz-adv-x="806" 
d="M733 0h-140q-21 34 -58 85l-364 502v-508q0 -64 6 -79h-103q0 3 1.5 12.5t2.5 24.5t1 43v513q0 72 -5 97h139q10 -21 59 -89l363 -500v498q0 66 -4 91h102q-5 -30 -5 -91v-500q0 -30 0.5 -50.5t2.5 -33t2 -15.5zM464 -74l-110 -163l-29 15l68 185z" />
    <glyph glyph-name="ncommaaccent" unicode="&#x146;" horiz-adv-x="576" 
d="M515 0h-95q2 3 4 21t2 45v269q0 59 -26.5 86.5t-104.5 27.5q-63 0 -93 -16t-42 -41q-9 -24 -9 -86v-240q0 -18 2 -41t5 -25h-97q7 19 7 66v374q0 45 -6 67h88l1 -41q11 13 33.5 25.5t56.5 19t66 6.5t68 -6.5t61 -19.5q41 -20 59 -65q5 -12 9 -41t4 -118v-201
q0 -18 2 -40.5t5 -25.5zM338 -74l-110 -163l-29 15l68 185z" />
    <glyph glyph-name="Ncaron" unicode="&#x147;" horiz-adv-x="806" 
d="M733 0h-140q-21 34 -58 85l-364 502v-508q0 -64 6 -79h-103q0 3 1.5 12.5t2.5 24.5t1 43v513q0 72 -5 97h139q10 -21 59 -89l363 -500v498q0 66 -4 91h102q-5 -30 -5 -91v-500q0 -30 0.5 -50.5t2.5 -33t2 -15.5zM566 895l-161 -143l-167 126l42 53l140 -102l115 100z" />
    <glyph glyph-name="ncaron" unicode="&#x148;" horiz-adv-x="576" 
d="M515 0h-95q2 3 4 21t2 45v269q0 59 -26.5 86.5t-104.5 27.5q-63 0 -93 -16t-42 -41q-9 -24 -9 -86v-240q0 -18 2 -41t5 -25h-97q7 19 7 66v374q0 45 -6 67h88l1 -41q11 13 33.5 25.5t56.5 19t66 6.5t68 -6.5t61 -19.5q41 -20 59 -65q5 -12 9 -41t4 -118v-201
q0 -18 2 -40.5t5 -25.5zM451 712l-161 -143l-167 126l42 53l140 -102l115 100z" />
    <glyph glyph-name="napostrophe" unicode="&#x149;" horiz-adv-x="576" 
d="M515 0h-95q2 3 4 21t2 45v269q0 59 -26.5 86.5t-104.5 27.5q-63 0 -93 -16t-42 -41q-9 -24 -9 -86v-240q0 -18 2 -41t5 -25h-97q7 19 7 66v374q0 45 -6 67h88l1 -41q11 13 33.5 25.5t56.5 19t66 6.5t68 -6.5t61 -19.5q41 -20 59 -65q5 -12 9 -41t4 -118v-201
q0 -18 2 -40.5t5 -25.5zM75 634q0 -42 -19.5 -67.5t-52.5 -32.5v27q13 6 21.5 18t8.5 44h-33v76h75v-65z" />
    <glyph glyph-name="Omacron" unicode="&#x14c;" horiz-adv-x="780" 
d="M741 351q0 -81 -23 -149.5t-68 -118t-111 -76.5t-148 -27q-76 0 -141.5 26.5t-112 75t-72 115t-25.5 142.5q0 78 23 146.5t67 118.5t109 77.5t145 27.5q78 0 144.5 -26t114 -74t73 -114.5t25.5 -143.5zM642 336q0 62 -16.5 116t-49.5 94.5t-83 63t-114 22.5
q-78 0 -130.5 -31.5t-81 -92.5t-28.5 -154q0 -62 16.5 -116.5t49.5 -94.5t83 -62.5t114 -22.5q77 0 129.5 31.5t81.5 92.5t29 154zM527 801h-274v63h274v-63z" />
    <glyph glyph-name="omacron" unicode="&#x14d;" horiz-adv-x="593" 
d="M560 255q0 -121 -71.5 -194.5t-191.5 -73.5q-57 0 -105.5 19t-84 54.5t-55 84.5t-19.5 105q0 54 16 102t49 85.5t83.5 58.5t114.5 21q56 0 105 -19t84.5 -54t55 -84t19.5 -105zM470 241q0 44 -11.5 82t-34 66t-57.5 43.5t-80 15.5q-51 0 -87 -20.5t-56.5 -61
t-20.5 -102.5q0 -68 23.5 -114t63.5 -69.5t95 -23.5q84 0 124.5 49t40.5 135zM433 618h-274v63h274v-63z" />
    <glyph glyph-name="Obreve" unicode="&#x14e;" horiz-adv-x="780" 
d="M741 351q0 -81 -23 -149.5t-68 -118t-111 -76.5t-148 -27q-76 0 -141.5 26.5t-112 75t-72 115t-25.5 142.5q0 78 23 146.5t67 118.5t109 77.5t145 27.5q78 0 144.5 -26t114 -74t73 -114.5t25.5 -143.5zM642 336q0 62 -16.5 116t-49.5 94.5t-83 63t-114 22.5
q-78 0 -130.5 -31.5t-81 -92.5t-28.5 -154q0 -62 16.5 -116.5t49.5 -94.5t83 -62.5t114 -22.5q77 0 129.5 31.5t81.5 92.5t29 154zM540 893q-13 -38 -29.5 -65t-46 -45t-74.5 -18q-53 0 -89 28t-61 100l34 14q18 -42 46.5 -59t69.5 -17t70.5 17.5t45.5 58.5z" />
    <glyph glyph-name="obreve" unicode="&#x14f;" horiz-adv-x="593" 
d="M560 255q0 -121 -71.5 -194.5t-191.5 -73.5q-57 0 -105.5 19t-84 54.5t-55 84.5t-19.5 105q0 54 16 102t49 85.5t83.5 58.5t114.5 21q56 0 105 -19t84.5 -54t55 -84t19.5 -105zM470 241q0 44 -11.5 82t-34 66t-57.5 43.5t-80 15.5q-51 0 -87 -20.5t-56.5 -61
t-20.5 -102.5q0 -68 23.5 -114t63.5 -69.5t95 -23.5q84 0 124.5 49t40.5 135zM446 710q-13 -38 -29.5 -65t-46 -45t-74.5 -18q-53 0 -89 28t-61 100l34 14q18 -42 46.5 -59t69.5 -17t70.5 17.5t45.5 58.5z" />
    <glyph glyph-name="Ohungarumlaut" unicode="&#x150;" horiz-adv-x="780" 
d="M741 351q0 -81 -23 -149.5t-68 -118t-111 -76.5t-148 -27q-76 0 -141.5 26.5t-112 75t-72 115t-25.5 142.5q0 78 23 146.5t67 118.5t109 77.5t145 27.5q78 0 144.5 -26t114 -74t73 -114.5t25.5 -143.5zM642 336q0 62 -16.5 116t-49.5 94.5t-83 63t-114 22.5
q-78 0 -130.5 -31.5t-81 -92.5t-28.5 -154q0 -62 16.5 -116.5t49.5 -94.5t83 -62.5t114 -22.5q77 0 129.5 31.5t81.5 92.5t29 154zM587 923l-146 -168l-17 11l93 201zM445 923l-146 -168l-17 11l93 201z" />
    <glyph glyph-name="ohungarumlaut" unicode="&#x151;" horiz-adv-x="593" 
d="M560 255q0 -121 -71.5 -194.5t-191.5 -73.5q-57 0 -105.5 19t-84 54.5t-55 84.5t-19.5 105q0 54 16 102t49 85.5t83.5 58.5t114.5 21q56 0 105 -19t84.5 -54t55 -84t19.5 -105zM470 241q0 44 -11.5 82t-34 66t-57.5 43.5t-80 15.5q-51 0 -87 -20.5t-56.5 -61
t-20.5 -102.5q0 -68 23.5 -114t63.5 -69.5t95 -23.5q84 0 124.5 49t40.5 135zM492 740l-146 -168l-17 11l93 201zM350 740l-146 -168l-17 11l93 201z" />
    <glyph glyph-name="OE" unicode="&#x152;" horiz-adv-x="909" 
d="M861 0h-441q-79 0 -148.5 22.5t-121.5 67.5t-81.5 113t-29.5 154q0 116 49.5 189t135.5 108.5t206 35.5h411v-89q-18 6 -79 6h-194v-210h183q41 0 60 3v-89q-18 4 -47 4h-196v-233h222q51 0 71 5v-87zM474 80v529l-63 3q-276 0 -276 -238q0 -31 7 -70.5t25.5 -77.5
t52.5 -72.5t88.5 -56t118.5 -21.5q3 0 10.5 0.5t21 2t15.5 1.5z" />
    <glyph glyph-name="oe" unicode="&#x153;" horiz-adv-x="1017" 
d="M986 243h-427q5 -93 60.5 -139t150.5 -46q40 0 82 14t78 36v-86q-41 -16 -87 -25.5t-87 -9.5q-80 0 -143.5 27t-99.5 80q-24 -37 -62 -63t-79.5 -35t-75.5 -9l-14 2q-40 2 -77 13.5t-71.5 35.5t-57.5 59.5t-33.5 73t-10.5 78.5q0 54 16 102.5t49 85.5t83.5 58.5
t115.5 21.5q69 0 126 -29t91 -80q32 51 87.5 80t126.5 29q56 0 103.5 -18t81.5 -51.5t53 -80t20 -101.5zM887 313q-4 29 -21 61t-54 53t-85 21q-50 0 -87 -20.5t-54.5 -53t-21.5 -61.5h323zM470 240q0 68 -23.5 114t-63.5 69.5t-96 23.5q-82 0 -123.5 -50t-41.5 -134
q0 -67 23.5 -113t63.5 -69.5t96 -23.5q83 0 124 48.5t41 134.5z" />
    <glyph glyph-name="Racute" unicode="&#x154;" horiz-adv-x="592" 
d="M592 0h-135l-44 51l-240 255v-223q0 -66 7 -83h-107q6 17 6 83v525q0 32 -5 82q36 0 111.5 6t110.5 6q65 0 108.5 -20.5t65.5 -57.5t22 -92q0 -91 -55 -147t-155 -70l225 -234q60 -63 85 -81zM397 516q0 53 -28.5 82.5t-98.5 29.5q-20 0 -97 -9v-233q42 -4 61 -4
q84 0 123.5 35.5t39.5 98.5zM430 876l-221 -122l-13 17l177 180z" />
    <glyph glyph-name="racute" unicode="&#x155;" horiz-adv-x="337" 
d="M328 437l-34 3q-41 0 -74.5 -16t-51 -42t-17.5 -61v-250q0 -60 7 -71h-97q7 13 7 71v353q0 20 -2 47.5t-5 35.5h88l1 -60q29 39 69 54.5t96 15.5h13v-80zM338 693l-221 -122l-13 17l177 180z" />
    <glyph glyph-name="Rcommaaccent" unicode="&#x156;" horiz-adv-x="592" 
d="M592 0h-135l-44 51l-240 255v-223q0 -66 7 -83h-107q6 17 6 83v525q0 32 -5 82q36 0 111.5 6t110.5 6q65 0 108.5 -20.5t65.5 -57.5t22 -92q0 -91 -55 -147t-155 -70l225 -234q60 -63 85 -81zM397 516q0 53 -28.5 82.5t-98.5 29.5q-20 0 -97 -9v-233q42 -4 61 -4
q84 0 123.5 35.5t39.5 98.5zM355 -74l-110 -163l-29 15l68 185z" />
    <glyph glyph-name="rcommaaccent" unicode="&#x157;" horiz-adv-x="337" 
d="M328 437l-34 3q-41 0 -74.5 -16t-51 -42t-17.5 -61v-250q0 -60 7 -71h-97q7 13 7 71v353q0 20 -2 47.5t-5 35.5h88l1 -60q29 39 69 54.5t96 15.5h13v-80zM172 -74l-110 -163l-29 15l68 185z" />
    <glyph glyph-name="Rcaron" unicode="&#x158;" horiz-adv-x="592" 
d="M592 0h-135l-44 51l-240 255v-223q0 -66 7 -83h-107q6 17 6 83v525q0 32 -5 82q36 0 111.5 6t110.5 6q65 0 108.5 -20.5t65.5 -57.5t22 -92q0 -91 -55 -147t-155 -70l225 -234q60 -63 85 -81zM397 516q0 53 -28.5 82.5t-98.5 29.5q-20 0 -97 -9v-233q42 -4 61 -4
q84 0 123.5 35.5t39.5 98.5zM436 895l-161 -143l-167 126l42 53l140 -102l115 100z" />
    <glyph glyph-name="rcaron" unicode="&#x159;" horiz-adv-x="337" 
d="M328 437l-34 3q-41 0 -74.5 -16t-51 -42t-17.5 -61v-250q0 -60 7 -71h-97q7 13 7 71v353q0 20 -2 47.5t-5 35.5h88l1 -60q29 39 69 54.5t96 15.5h13v-80zM346 712l-161 -143l-167 126l42 53l140 -102l115 100z" />
    <glyph glyph-name="Sacute" unicode="&#x15a;" horiz-adv-x="474" 
d="M428 182q0 -32 -9.5 -67t-36.5 -69t-68.5 -51t-85.5 -17q-80 0 -183 49v104q3 -6 18.5 -17t34.5 -21q27 -16 61 -28t65 -12q55 0 85 32.5t30 88.5q0 37 -20.5 65t-67.5 54t-51 28q-66 38 -92 58.5t-40.5 42t-21.5 46.5t-7 56q0 35 10.5 70t35.5 61t63 41.5t88 15.5
q36 0 76.5 -7.5t73.5 -20.5v-90q-15 16 -44 27t-57 15t-47 4q-50 0 -79.5 -30t-29.5 -79q0 -65 74 -109q11 -6 58 -29.5t80 -47t53 -52.5t27 -57.5t7 -53.5zM381 876l-221 -122l-13 17l177 180z" />
    <glyph glyph-name="sacute" unicode="&#x15b;" horiz-adv-x="400" 
d="M365 136q0 -26 -9 -52.5t-30.5 -48.5t-55 -36t-75.5 -14q-67 0 -154 39v90q10 -11 33.5 -25t58 -25t60.5 -11q24 0 44.5 9.5t29.5 27t9 35.5q0 24 -17 44.5t-80 50t-83 44.5t-31 29t-20 35t-9 50q0 28 9.5 54t33.5 47t59 30t64 9q54 0 127 -23v-79q-22 16 -58 26t-62 10
t-47.5 -8t-31 -25t-9.5 -36q0 -9 3.5 -20.5t13.5 -22t20 -16.5t58 -29q76 -37 100.5 -57.5t36.5 -45t12 -56.5zM348 693l-221 -122l-13 17l177 180z" />
    <glyph glyph-name="Scircumflex" unicode="&#x15c;" horiz-adv-x="474" 
d="M428 182q0 -32 -9.5 -67t-36.5 -69t-68.5 -51t-85.5 -17q-80 0 -183 49v104q3 -6 18.5 -17t34.5 -21q27 -16 61 -28t65 -12q55 0 85 32.5t30 88.5q0 37 -20.5 65t-67.5 54t-51 28q-66 38 -92 58.5t-40.5 42t-21.5 46.5t-7 56q0 35 10.5 70t35.5 61t63 41.5t88 15.5
q36 0 76.5 -7.5t73.5 -20.5v-90q-15 16 -44 27t-57 15t-47 4q-50 0 -79.5 -30t-29.5 -79q0 -65 74 -109q11 -6 58 -29.5t80 -47t53 -52.5t27 -57.5t7 -53.5zM402 814l-42 -53l-140 102l-114 -100l-32 35l161 142z" />
    <glyph glyph-name="scircumflex" unicode="&#x15d;" horiz-adv-x="400" 
d="M365 136q0 -26 -9 -52.5t-30.5 -48.5t-55 -36t-75.5 -14q-67 0 -154 39v90q10 -11 33.5 -25t58 -25t60.5 -11q24 0 44.5 9.5t29.5 27t9 35.5q0 24 -17 44.5t-80 50t-83 44.5t-31 29t-20 35t-9 50q0 28 9.5 54t33.5 47t59 30t64 9q54 0 127 -23v-79q-22 16 -58 26t-62 10
t-47.5 -8t-31 -25t-9.5 -36q0 -9 3.5 -20.5t13.5 -22t20 -16.5t58 -29q76 -37 100.5 -57.5t36.5 -45t12 -56.5zM365 631l-42 -53l-140 102l-114 -100l-32 35l161 142z" />
    <glyph glyph-name="Scedilla" unicode="&#x15e;" horiz-adv-x="474" 
d="M428 182q0 -59 -23.5 -102t-59.5 -67.5t-82 -30.5q-33 -21 -33 -33q0 -3 5 -7.5t41.5 -21t47 -26.5t10.5 -19q0 -30 -129 -89l-16 29q30 13 48.5 26t18.5 21q0 9 -32.5 24t-43 21t-17.5 13t-7 14q0 18 47 46q-71 5 -158 47v104q3 -6 18.5 -17t34.5 -21q27 -16 61 -28
t65 -12q55 0 85 32.5t30 88.5q0 37 -20.5 65t-67.5 54t-51 28q-66 38 -92 58.5t-40.5 42t-21.5 46.5t-7 56q0 35 10.5 70t35.5 61t63 41.5t88 15.5q36 0 76.5 -7.5t73.5 -20.5v-90q-15 16 -44 27t-57 15t-47 4q-50 0 -79.5 -30t-29.5 -79q0 -65 74 -109q11 -6 58 -29.5
t80 -47t53 -52.5t27 -57.5t7 -53.5z" />
    <glyph glyph-name="scedilla" unicode="&#x15f;" horiz-adv-x="400" 
d="M365 136q0 -30 -12.5 -61.5t-46 -55.5t-76.5 -31q-13 -7 -28.5 -19t-15.5 -20q0 -3 5 -7.5t41.5 -21t47 -26.5t10.5 -19q0 -15 -33.5 -38.5t-96.5 -50.5l-14 29q66 30 66 47q0 9 -32.5 24t-43 21t-17.5 13t-7 14q0 20 59 52q-57 5 -130 38v90q10 -11 33.5 -25t58 -25
t60.5 -11q24 0 44.5 9.5t29.5 27t9 35.5q0 24 -17 44.5t-80 50t-83 44.5t-31 29t-20 35t-9 50q0 28 9.5 54t33.5 47t59 30t64 9q54 0 127 -23v-79q-22 16 -58 26t-62 10t-47.5 -8t-31 -25t-9.5 -36q0 -9 3.5 -20.5t13.5 -22t20 -16.5t58 -29q76 -37 100.5 -57.5t36.5 -45
t12 -56.5z" />
    <glyph glyph-name="Scaron" unicode="&#x160;" horiz-adv-x="474" 
d="M428 182q0 -32 -9.5 -67t-36.5 -69t-68.5 -51t-85.5 -17q-80 0 -183 49v104q3 -6 18.5 -17t34.5 -21q27 -16 61 -28t65 -12q55 0 85 32.5t30 88.5q0 37 -20.5 65t-67.5 54t-51 28q-66 38 -92 58.5t-40.5 42t-21.5 46.5t-7 56q0 35 10.5 70t35.5 61t63 41.5t88 15.5
q36 0 76.5 -7.5t73.5 -20.5v-90q-15 16 -44 27t-57 15t-47 4q-50 0 -79.5 -30t-29.5 -79q0 -65 74 -109q11 -6 58 -29.5t80 -47t53 -52.5t27 -57.5t7 -53.5zM402 895l-161 -143l-167 126l42 53l140 -102l115 100z" />
    <glyph glyph-name="scaron" unicode="&#x161;" horiz-adv-x="400" 
d="M365 136q0 -26 -9 -52.5t-30.5 -48.5t-55 -36t-75.5 -14q-67 0 -154 39v90q10 -11 33.5 -25t58 -25t60.5 -11q24 0 44.5 9.5t29.5 27t9 35.5q0 24 -17 44.5t-80 50t-83 44.5t-31 29t-20 35t-9 50q0 28 9.5 54t33.5 47t59 30t64 9q54 0 127 -23v-79q-22 16 -58 26t-62 10
t-47.5 -8t-31 -25t-9.5 -36q0 -9 3.5 -20.5t13.5 -22t20 -16.5t58 -29q76 -37 100.5 -57.5t36.5 -45t12 -56.5zM365 712l-161 -143l-167 126l42 53l140 -102l115 100z" />
    <glyph glyph-name="Tcommaaccent" unicode="&#x162;" horiz-adv-x="575" 
d="M565 600q-56 7 -89 7h-142v-493q0 -28 2 -67t5 -47h-107q6 26 6 103v504h-157q-33 0 -73 -7v90h555v-90zM345 -74l-110 -163l-29 15l68 185z" />
    <glyph glyph-name="tcommaaccent" unicode="&#x163;" horiz-adv-x="351" 
d="M340 0q-73 -11 -126 -11q-50 0 -85 22t-44 64q-4 20 -4 91v270h-69v71h69v83q-2 33 -3 38t-2 7h91q-4 -31 -4 -76v-52h90q18 0 42 3v-79q-27 5 -66 5h-66v-298q0 -45 18 -62t63 -17q31 0 96 13v-72zM266 -76l-110 -163l-29 15l68 185z" />
    <glyph glyph-name="Tcaron" unicode="&#x164;" horiz-adv-x="575" 
d="M565 600q-56 7 -89 7h-142v-493q0 -28 2 -67t5 -47h-107q6 26 6 103v504h-157q-33 0 -73 -7v90h555v-90zM451 895l-161 -143l-167 126l42 53l140 -102l115 100z" />
    <glyph glyph-name="tcaron" unicode="&#x165;" horiz-adv-x="351" 
d="M340 0q-73 -11 -126 -11q-50 0 -85 22t-44 64q-4 20 -4 91v270h-69v71h69v83q-2 33 -3 38t-2 7h91q-4 -31 -4 -76v-52h90q18 0 42 3v-79q-27 5 -66 5h-66v-298q0 -45 18 -62t63 -17q31 0 96 13v-72zM328 642q0 -42 -19.5 -67.5t-52.5 -32.5v27q13 6 21.5 18t8.5 44h-33
v76h75v-65z" />
    <glyph glyph-name="Utilde" unicode="&#x168;" horiz-adv-x="738" 
d="M667 690q-5 -12 -5 -87v-266q0 -102 -2.5 -144t-9.5 -68q-9 -31 -31.5 -59.5t-63.5 -49t-92.5 -28.5t-93.5 -8q-66 0 -124.5 14t-100.5 46.5t-57 84.5q-4 15 -7.5 51.5t-3.5 162.5v264q0 73 -5 87h106q-7 -15 -7 -88v-368q0 -56 7 -78q13 -49 61.5 -73.5t130.5 -24.5
q165 0 192 97q6 19 6 76v370q0 72 -4 89h104zM549 825q-1 -1 -26.5 -17t-41.5 -23.5t-29.5 -11t-25.5 -3.5q-23 0 -73.5 29t-75.5 29q-8 0 -20 -4t-30 -14.5t-19 -11.5l-21 33q1 1 26.5 17t41.5 23.5t29.5 11t25.5 3.5q23 0 73.5 -29t76.5 -29q14 0 29 7.5t40 22.5z" />
    <glyph glyph-name="utilde" unicode="&#x169;" horiz-adv-x="577" 
d="M513 0h-86l-1 34q-57 -47 -174 -47q-44 0 -81 12.5t-62 35t-36 56.5q-2 6 -4 17t-3 26.5t-1 90.5v203q0 51 -6 79h95q-3 -6 -5 -33.5t-2 -45.5v-258q0 -56 29.5 -85.5t103.5 -29.5q146 0 146 122v255q0 18 -2 43.5t-5 31.5h94q-5 -21 -5 -75v-345q0 -59 5 -87zM468 642
q-1 -1 -26.5 -17t-41.5 -23.5t-29.5 -11t-25.5 -3.5q-23 0 -73.5 29t-75.5 29q-8 0 -20 -4t-30 -14.5t-19 -11.5l-21 33q1 1 26.5 17t41.5 23.5t29.5 11t25.5 3.5q23 0 73.5 -29t76.5 -29q14 0 29 7.5t40 22.5z" />
    <glyph glyph-name="Umacron" unicode="&#x16a;" horiz-adv-x="738" 
d="M667 690q-5 -12 -5 -87v-266q0 -102 -2.5 -144t-9.5 -68q-9 -31 -31.5 -59.5t-63.5 -49t-92.5 -28.5t-93.5 -8q-66 0 -124.5 14t-100.5 46.5t-57 84.5q-4 15 -7.5 51.5t-3.5 162.5v264q0 73 -5 87h106q-7 -15 -7 -88v-368q0 -56 7 -78q13 -49 61.5 -73.5t130.5 -24.5
q165 0 192 97q6 19 6 76v370q0 72 -4 89h104zM505 801h-274v63h274v-63z" />
    <glyph glyph-name="umacron" unicode="&#x16b;" horiz-adv-x="577" 
d="M513 0h-86l-1 34q-57 -47 -174 -47q-44 0 -81 12.5t-62 35t-36 56.5q-2 6 -4 17t-3 26.5t-1 90.5v203q0 51 -6 79h95q-3 -6 -5 -33.5t-2 -45.5v-258q0 -56 29.5 -85.5t103.5 -29.5q146 0 146 122v255q0 18 -2 43.5t-5 31.5h94q-5 -21 -5 -75v-345q0 -59 5 -87zM424 618
h-274v63h274v-63z" />
    <glyph glyph-name="Ubreve" unicode="&#x16c;" horiz-adv-x="738" 
d="M667 690q-5 -12 -5 -87v-266q0 -102 -2.5 -144t-9.5 -68q-9 -31 -31.5 -59.5t-63.5 -49t-92.5 -28.5t-93.5 -8q-66 0 -124.5 14t-100.5 46.5t-57 84.5q-4 15 -7.5 51.5t-3.5 162.5v264q0 73 -5 87h106q-7 -15 -7 -88v-368q0 -56 7 -78q13 -49 61.5 -73.5t130.5 -24.5
q165 0 192 97q6 19 6 76v370q0 72 -4 89h104zM518 893q-13 -38 -29.5 -65t-46 -45t-74.5 -18q-53 0 -89 28t-61 100l34 14q18 -42 46.5 -59t69.5 -17t70.5 17.5t45.5 58.5z" />
    <glyph glyph-name="ubreve" unicode="&#x16d;" horiz-adv-x="577" 
d="M513 0h-86l-1 34q-57 -47 -174 -47q-44 0 -81 12.5t-62 35t-36 56.5q-2 6 -4 17t-3 26.5t-1 90.5v203q0 51 -6 79h95q-3 -6 -5 -33.5t-2 -45.5v-258q0 -56 29.5 -85.5t103.5 -29.5q146 0 146 122v255q0 18 -2 43.5t-5 31.5h94q-5 -21 -5 -75v-345q0 -59 5 -87zM437 710
q-13 -38 -29.5 -65t-46 -45t-74.5 -18q-53 0 -89 28t-61 100l34 14q18 -42 46.5 -59t69.5 -17t70.5 17.5t45.5 58.5z" />
    <glyph glyph-name="Uring" unicode="&#x16e;" horiz-adv-x="738" 
d="M667 690q-5 -12 -5 -87v-266q0 -102 -2.5 -144t-9.5 -68q-9 -31 -31.5 -59.5t-63.5 -49t-92.5 -28.5t-93.5 -8q-66 0 -124.5 14t-100.5 46.5t-57 84.5q-4 15 -7.5 51.5t-3.5 162.5v264q0 73 -5 87h106q-7 -15 -7 -88v-368q0 -56 7 -78q13 -49 61.5 -73.5t130.5 -24.5
q165 0 192 97q6 19 6 76v370q0 72 -4 89h104zM493 867q0 -52 -36.5 -88.5t-88.5 -36.5t-88.5 36.5t-36.5 88.5t36.5 88t88.5 36t88.5 -36t36.5 -88zM439 867q0 29 -21 50t-50 21t-50 -21t-21 -50q0 -30 21 -51t50 -21t50 21t21 51z" />
    <glyph glyph-name="uring" unicode="&#x16f;" horiz-adv-x="577" 
d="M513 0h-86l-1 34q-57 -47 -174 -47q-44 0 -81 12.5t-62 35t-36 56.5q-2 6 -4 17t-3 26.5t-1 90.5v203q0 51 -6 79h95q-3 -6 -5 -33.5t-2 -45.5v-258q0 -56 29.5 -85.5t103.5 -29.5q146 0 146 122v255q0 18 -2 43.5t-5 31.5h94q-5 -21 -5 -75v-345q0 -59 5 -87zM412 684
q0 -52 -36.5 -88.5t-88.5 -36.5t-88.5 36.5t-36.5 88.5t36.5 88t88.5 36t88.5 -36t36.5 -88zM358 684q0 29 -21 50t-50 21t-50 -21t-21 -50q0 -30 21 -51t50 -21t50 21t21 51z" />
    <glyph glyph-name="Uhungarumlaut" unicode="&#x170;" horiz-adv-x="738" 
d="M667 690q-5 -12 -5 -87v-266q0 -102 -2.5 -144t-9.5 -68q-9 -31 -31.5 -59.5t-63.5 -49t-92.5 -28.5t-93.5 -8q-66 0 -124.5 14t-100.5 46.5t-57 84.5q-4 15 -7.5 51.5t-3.5 162.5v264q0 73 -5 87h106q-7 -15 -7 -88v-368q0 -56 7 -78q13 -49 61.5 -73.5t130.5 -24.5
q165 0 192 97q6 19 6 76v370q0 72 -4 89h104zM555 923l-146 -168l-17 11l93 201zM413 923l-146 -168l-17 11l93 201z" />
    <glyph glyph-name="uhungarumlaut" unicode="&#x171;" horiz-adv-x="577" 
d="M513 0h-86l-1 34q-57 -47 -174 -47q-44 0 -81 12.5t-62 35t-36 56.5q-2 6 -4 17t-3 26.5t-1 90.5v203q0 51 -6 79h95q-3 -6 -5 -33.5t-2 -45.5v-258q0 -56 29.5 -85.5t103.5 -29.5q146 0 146 122v255q0 18 -2 43.5t-5 31.5h94q-5 -21 -5 -75v-345q0 -59 5 -87zM477 740
l-146 -168l-17 11l93 201zM335 740l-146 -168l-17 11l93 201z" />
    <glyph glyph-name="Uogonek" unicode="&#x172;" horiz-adv-x="738" 
d="M501 -132q-54 -39 -79.5 -50t-49.5 -11q-43 0 -67 22t-24 55q0 52 68 97q-40 1 -94.5 11t-102.5 42.5t-65 90.5q-4 15 -7.5 51.5t-3.5 162.5v264q0 73 -5 87h106q-6 -13 -6 -74l-1 -382q0 -56 7 -78q13 -49 61.5 -73.5t130.5 -24.5q165 0 192 97q6 19 6 76v370
q0 72 -4 89h104q-5 -12 -5 -87v-266q0 -102 -2.5 -144t-9.5 -68q-10 -37 -37.5 -67t-78.5 -50.5t-126 -25.5q-22 -17 -41 -39t-19 -41q0 -44 50 -44q38 0 85 34z" />
    <glyph glyph-name="uogonek" unicode="&#x173;" horiz-adv-x="577" 
d="M547 -131q-55 -39 -79.5 -50t-47.5 -11q-44 0 -68 22t-24 55q0 28 23.5 58t75.5 57l-1 34q-57 -47 -157 -47q-33 0 -70.5 7t-62.5 20q-46 26 -62 74q-9 30 -9 101v239q0 51 -6 79h95q-3 -6 -5 -33.5t-2 -45.5v-258q0 -66 34 -92q30 -23 99 -23q136 0 145 96l1 26v255
q0 18 -2 43.5t-5 31.5h94q-5 -21 -5 -75v-345q0 -64 7 -87q-19 -1 -46 -13t-50.5 -37.5t-23.5 -46.5q0 -43 50 -43q43 0 85 35z" />
    <glyph glyph-name="Wcircumflex" unicode="&#x174;" horiz-adv-x="1031" 
d="M1020 690q-17 -34 -39 -102l-139 -464q-30 -97 -36 -124h-136q-12 56 -21 88l-133 490l-133 -490q-4 -14 -20 -88h-135l-28 99q-27 86 -81 266.5t-71 235.5q-17 59 -35 89h113q-1 -19 18 -82l152 -500l134 496q18 63 19 86h140q0 -18 17 -82l137 -498l149 498
q17 54 17 79v3h111zM678 814l-42 -53l-140 102l-114 -100l-32 35l161 142z" />
    <glyph glyph-name="wcircumflex" unicode="&#x175;" horiz-adv-x="814" 
d="M690 507h96q-8 -9 -36 -96l-129 -411h-102l-102 355q-5 17 -7 38h-2q0 -20 -5 -38l-110 -355h-102l-48 159l-77 239q-17 52 -24 70.5t-15 38.5h97q0 -14 13 -59l93 -297q8 -22 14 -60h2q3 22 12 54l91 297q16 52 16 65h87q4 -23 17 -66l93 -312l9 -38h2q1 18 7 38l94 310
q13 43 16 68zM570 631l-42 -53l-140 102l-114 -100l-32 35l161 142z" />
    <glyph glyph-name="Ycircumflex" unicode="&#x176;" horiz-adv-x="593" 
d="M585 690q-4 -2 -16 -19t-28 -45l-195 -334v-206q0 -72 5 -86h-104q5 11 5 88v205l-212 341q-22 35 -40 56h125q1 -15 28 -62l147 -254l136 247q23 44 27 69h122zM460 814l-42 -53l-140 102l-114 -100l-32 35l161 142z" />
    <glyph glyph-name="ycircumflex" unicode="&#x177;" horiz-adv-x="562" 
d="M549 507q-3 -4 -9.5 -16.5t-33.5 -76.5l-285 -647h-104q18 22 24 32t16 32l78 174l-183 419q-13 31 -25 53t-18 30h112q1 -26 20 -73l140 -337q97 224 133 322q23 59 23 88h112zM451 631l-42 -53l-140 102l-114 -100l-32 35l161 142z" />
    <glyph glyph-name="Ydieresis" unicode="&#x178;" horiz-adv-x="593" 
d="M585 690q-4 -2 -16 -19t-28 -45l-195 -334v-206q0 -72 5 -86h-104q5 11 5 88v205l-212 341q-22 35 -40 56h125q1 -15 28 -62l147 -254l136 247q23 44 27 69h122zM437 833q0 -20 -14 -34t-34 -14t-35 14t-15 34t15 34.5t35 14.5t34 -14.5t14 -34.5zM252 833
q0 -20 -14.5 -34t-33.5 -14q-20 0 -34.5 14t-14.5 34t14.5 34.5t34.5 14.5q19 0 33.5 -14.5t14.5 -34.5z" />
    <glyph glyph-name="Zacute" unicode="&#x179;" horiz-adv-x="600" 
d="M558 0h-515v103q13 12 41 44q337 421 368 461h-305q-88 0 -106 -6v88h512v-105l-406 -503h316q70 0 95 6v-88zM447 876l-221 -122l-13 17l177 180z" />
    <glyph glyph-name="zacute" unicode="&#x17a;" horiz-adv-x="480" 
d="M436 0h-395v85q24 19 129 150q62 78 167 201h-207q-66 0 -90 -6v77h395v-86q-92 -102 -293 -350h234q46 0 60 9v-80zM389 693l-221 -122l-13 17l177 180z" />
    <glyph glyph-name="Zdotaccent" unicode="&#x17b;" horiz-adv-x="600" 
d="M558 0h-515v103q13 12 41 44q337 421 368 461h-305q-88 0 -106 -6v88h512v-105l-406 -503h316q70 0 95 6v-88zM350 837q0 -21 -15 -36t-37 -15t-37 15t-15 36q0 22 15.5 37.5t36.5 15.5t36.5 -15.5t15.5 -37.5z" />
    <glyph glyph-name="zdotaccent" unicode="&#x17c;" horiz-adv-x="480" 
d="M436 0h-395v85q24 19 129 150q62 78 167 201h-207q-66 0 -90 -6v77h395v-86q-92 -102 -293 -350h234q46 0 60 9v-80zM291 654q0 -21 -15 -36t-37 -15t-37 15t-15 36q0 22 15.5 37.5t36.5 15.5t36.5 -15.5t15.5 -37.5z" />
    <glyph glyph-name="Zcaron" unicode="&#x17d;" horiz-adv-x="600" 
d="M558 0h-515v103q13 12 41 44q337 421 368 461h-305q-88 0 -106 -6v88h512v-105l-406 -503h316q70 0 95 6v-88zM462 895l-161 -143l-167 126l42 53l140 -102l115 100z" />
    <glyph glyph-name="zcaron" unicode="&#x17e;" horiz-adv-x="480" 
d="M436 0h-395v85q24 19 129 150q62 78 167 201h-207q-66 0 -90 -6v77h395v-86q-92 -102 -293 -350h234q46 0 60 9v-80zM403 712l-161 -143l-167 126l42 53l140 -102l115 100z" />
    <glyph glyph-name="florin" unicode="&#x192;" horiz-adv-x="599" 
d="M541 626q-7 1 -23 5t-31 6.5t-37 2.5q-35 0 -53.5 -20.5t-27.5 -69.5l-14 -76h72q22 0 60 4v-71q-19 3 -59 3h-84l-62 -382q-11 -72 -30.5 -114.5t-57.5 -72t-121 -58.5v85q51 16 71 36t29.5 47.5t19.5 82.5l63 376h-44q-41 0 -59 -3v71q36 -4 59 -4h55l19 92
q16 75 56.5 109t112.5 34q16 0 45 -3t41 -3v-77z" />
    <glyph glyph-name="AEacute" unicode="&#x1fc;" horiz-adv-x="893" 
d="M845 0h-391q5 32 5 79v103h-250l-65 -99q-27 -44 -47 -83h-119q11 12 32.5 42.5t50.5 75.5l325 496q30 43 44 76h395v-89q-16 6 -79 6h-194v-210h184q41 0 59 3v-89q-16 4 -46 4h-197v-233h223q50 0 70 5v-87zM459 262v303l-199 -303h199zM746 876l-221 -122l-13 17
l177 180z" />
    <glyph glyph-name="aeacute" unicode="&#x1fd;" horiz-adv-x="917" 
d="M886 243h-410q4 -185 198 -185q76 0 156 50v-86q-89 -35 -170 -35q-146 0 -221 103q-45 -55 -96.5 -79t-128.5 -24q-56 0 -97.5 22t-63.5 58t-22 84q0 51 20.5 85t54 53.5t88.5 31.5t200 12v13q0 56 -32.5 79.5t-109.5 23.5q-84 -3 -179 -46v84q128 31 196 31
q74 0 116 -19t65 -57q28 34 77 54.5t105 20.5q59 0 107 -20t80.5 -56.5t49.5 -87t17 -110.5zM787 313q-7 45 -32.5 78.5t-59 45t-65.5 11.5q-68 0 -106.5 -37t-47.5 -98h311zM394 193v67q-40 3 -93 3q-70 0 -107 -10.5t-55 -35t-18 -59.5q0 -27 11 -50.5t38 -37t65 -13.5
q30 0 67.5 11.5t64.5 43.5t27 81zM610 693l-221 -122l-13 17l177 180z" />
    <glyph glyph-name="Oslashacute" unicode="&#x1fe;" horiz-adv-x="780" 
d="M552 876l-221 -122l-13 17l177 180zM748 709l-96 -110q42 -47 65.5 -111t23.5 -137q0 -81 -23 -149.5t-68 -118t-111 -76.5t-148 -27q-62 0 -118.5 17.5t-98.5 49.5l-59 -67h-89l99 114q-41 47 -63 110.5t-22 134.5q0 78 23 146.5t67 118.5t109 77.5t145 27.5
q62 0 118.5 -17t99.5 -48l57 65h89zM642 336q0 54 -13.5 103.5t-38.5 87.5l-357 -412q65 -57 169 -57q77 0 129.5 31.5t81.5 92.5t29 154zM139 354q0 -113 48 -188l358 412q-69 54 -166 54q-78 0 -130.5 -31.5t-81 -92.5t-28.5 -154z" />
    <glyph glyph-name="oslashacute" unicode="&#x1ff;" horiz-adv-x="593" 
d="M450 693l-221 -122l-13 17l177 180zM575 524l-80 -90q31 -34 48 -80.5t17 -98.5q0 -121 -71.5 -194.5t-191.5 -73.5q-91 0 -155 44l-45 -51h-80l80 91q-23 25 -38 57.5t-20.5 64.5t-5.5 57q0 54 16 102t49 85.5t83.5 58.5t114.5 21q87 0 153 -44l45 51h81zM470 241
q0 35 -8.5 69.5t-23.5 58.5l-244 -279q46 -33 111 -33q84 0 124.5 49t40.5 135zM123 264q0 -36 8 -70t23 -58l244 278q-19 15 -47.5 24.5t-63.5 9.5q-51 0 -87 -20.5t-56.5 -61t-20.5 -102.5z" />
    <glyph glyph-name="uni0237" unicode="&#x237;" horiz-adv-x="224" 
d="M159 507q-4 -36 -4 -71v-406q0 -93 -41.5 -139.5t-129.5 -57.5v77q24 2 45.5 10.5t32 30t10.5 82.5v404q0 36 -4 70h91z" />
    <glyph glyph-name="circumflex" unicode="&#x2c6;" 
d="M433 631l-42 -53l-140 102l-114 -100l-32 35l161 142z" />
    <glyph glyph-name="caron" unicode="&#x2c7;" 
d="M433 712l-161 -143l-167 126l42 53l140 -102l115 100z" />
    <glyph glyph-name="breve" unicode="&#x2d8;" 
d="M419 710q-13 -38 -29.5 -65t-46 -45t-74.5 -18q-53 0 -89 28t-61 100l34 14q18 -42 46.5 -59t69.5 -17t70.5 17.5t45.5 58.5z" />
    <glyph glyph-name="dotaccent" unicode="&#x2d9;" 
d="M321 654q0 -21 -15 -36t-37 -15t-37 15t-15 36q0 22 15.5 37.5t36.5 15.5t36.5 -15.5t15.5 -37.5z" />
    <glyph glyph-name="ring" unicode="&#x2da;" 
d="M394 684q0 -52 -36.5 -88.5t-88.5 -36.5t-88.5 36.5t-36.5 88.5t36.5 88t88.5 36t88.5 -36t36.5 -88zM340 684q0 29 -21 50t-50 21t-50 -21t-21 -50q0 -30 21 -51t50 -21t50 21t21 51z" />
    <glyph glyph-name="ogonek" unicode="&#x2db;" 
d="M379 -131q-54 -39 -79 -50t-49 -11q-43 0 -67.5 22t-24.5 55q0 28 22.5 56t77.5 59h57q-12 -4 -38 -24.5t-39 -40t-13 -32.5q0 -23 14.5 -33.5t36.5 -10.5q40 0 85 34z" />
    <glyph glyph-name="tilde" unicode="&#x2dc;" 
d="M450 642q-1 -1 -26.5 -17t-41.5 -23.5t-29.5 -11t-25.5 -3.5q-23 0 -73.5 29t-75.5 29q-8 0 -20 -4t-30 -14.5t-19 -11.5l-21 33q1 1 26.5 17t41.5 23.5t29.5 11t25.5 3.5q23 0 73.5 -29t76.5 -29q14 0 29 7.5t40 22.5z" />
    <glyph glyph-name="hungarumlaut" unicode="&#x2dd;" 
d="M427 740l-146 -168l-17 11l93 201zM285 740l-146 -168l-17 11l93 201z" />
    <glyph glyph-name="uni0312" unicode="&#x312;" horiz-adv-x="75" 
d="M75 625q0 -42 -19.5 -67.5t-52.5 -32.5v27q13 6 21.5 18t8.5 44h-33v76h75v-65z" />
    <glyph glyph-name="Wgrave" unicode="&#x1e80;" horiz-adv-x="1031" 
d="M1020 690q-17 -34 -39 -102l-139 -464q-30 -97 -36 -124h-136q-12 56 -21 88l-133 490l-133 -490q-4 -14 -20 -88h-135l-28 99q-27 86 -81 266.5t-71 235.5q-17 59 -35 89h113q-1 -19 18 -82l152 -500l134 496q18 63 19 86h140q0 -18 17 -82l137 -498l149 498
q17 54 17 79v3h111zM578 771l-12 -17l-222 122l57 75z" />
    <glyph glyph-name="wgrave" unicode="&#x1e81;" horiz-adv-x="814" 
d="M690 507h96q-8 -9 -36 -96l-129 -411h-102l-102 355q-5 17 -7 38h-2q0 -20 -5 -38l-110 -355h-102l-48 159l-77 239q-17 52 -24 70.5t-15 38.5h97q0 -14 13 -59l93 -297q8 -22 14 -60h2q3 22 12 54l91 297q16 52 16 65h87q4 -23 17 -66l93 -312l9 -38h2q1 18 7 38l94 310
q13 43 16 68zM458 588l-12 -17l-222 122l57 75z" />
    <glyph glyph-name="Wacute" unicode="&#x1e82;" horiz-adv-x="1031" 
d="M1020 690q-17 -34 -39 -102l-139 -464q-30 -97 -36 -124h-136q-12 56 -21 88l-133 490l-133 -490q-4 -14 -20 -88h-135l-28 99q-27 86 -81 266.5t-71 235.5q-17 59 -35 89h113q-1 -19 18 -82l152 -500l134 496q18 63 19 86h140q0 -18 17 -82l137 -498l149 498
q17 54 17 79v3h111zM686 876l-221 -122l-13 17l177 180z" />
    <glyph glyph-name="wacute" unicode="&#x1e83;" horiz-adv-x="814" 
d="M690 507h96q-8 -9 -36 -96l-129 -411h-102l-102 355q-5 17 -7 38h-2q0 -20 -5 -38l-110 -355h-102l-48 159l-77 239q-17 52 -24 70.5t-15 38.5h97q0 -14 13 -59l93 -297q8 -22 14 -60h2q3 22 12 54l91 297q16 52 16 65h87q4 -23 17 -66l93 -312l9 -38h2q1 18 7 38l94 310
q13 43 16 68zM587 693l-221 -122l-13 17l177 180z" />
    <glyph glyph-name="Wdieresis" unicode="&#x1e84;" horiz-adv-x="1031" 
d="M1020 690q-17 -34 -39 -102l-139 -464q-30 -97 -36 -124h-136q-12 56 -21 88l-133 490l-133 -490q-4 -14 -20 -88h-135l-28 99q-27 86 -81 266.5t-71 235.5q-17 59 -35 89h113q-1 -19 18 -82l152 -500l134 496q18 63 19 86h140q0 -18 17 -82l137 -498l149 498
q17 54 17 79v3h111zM655 833q0 -20 -14 -34t-34 -14t-35 14t-15 34t15 34.5t35 14.5t34 -14.5t14 -34.5zM470 833q0 -20 -14.5 -34t-33.5 -14q-20 0 -34.5 14t-14.5 34t14.5 34.5t34.5 14.5q19 0 33.5 -14.5t14.5 -34.5z" />
    <glyph glyph-name="wdieresis" unicode="&#x1e85;" horiz-adv-x="814" 
d="M690 507h96q-8 -9 -36 -96l-129 -411h-102l-102 355q-5 17 -7 38h-2q0 -20 -5 -38l-110 -355h-102l-48 159l-77 239q-17 52 -24 70.5t-15 38.5h97q0 -14 13 -59l93 -297q8 -22 14 -60h2q3 22 12 54l91 297q16 52 16 65h87q4 -23 17 -66l93 -312l9 -38h2q1 18 7 38l94 310
q13 43 16 68zM547 650q0 -20 -14 -34t-34 -14t-35 14t-15 34t15 34.5t35 14.5t34 -14.5t14 -34.5zM362 650q0 -20 -14.5 -34t-33.5 -14q-20 0 -34.5 14t-14.5 34t14.5 34.5t34.5 14.5q19 0 33.5 -14.5t14.5 -34.5z" />
    <glyph glyph-name="Ygrave" unicode="&#x1ef2;" horiz-adv-x="593" 
d="M585 690q-4 -2 -16 -19t-28 -45l-195 -334v-206q0 -72 5 -86h-104q5 11 5 88v205l-212 341q-22 35 -40 56h125q1 -15 28 -62l147 -254l136 247q23 44 27 69h122zM369 771l-12 -17l-222 122l57 75z" />
    <glyph glyph-name="ygrave" unicode="&#x1ef3;" horiz-adv-x="562" 
d="M549 507q-3 -4 -9.5 -16.5t-33.5 -76.5l-285 -647h-104q18 22 24 32t16 32l78 174l-183 419q-13 31 -25 53t-18 30h112q1 -26 20 -73l140 -337q97 224 133 322q23 59 23 88h112zM338 588l-12 -17l-222 122l57 75z" />
    <glyph glyph-name="endash" unicode="&#x2013;" 
d="M476 229h-414v71h414v-71z" />
    <glyph glyph-name="emdash" unicode="&#x2014;" horiz-adv-x="1076" 
d="M1076 229h-1076v71h1076v-71z" />
    <glyph glyph-name="quoteleft" unicode="&#x2018;" horiz-adv-x="182" 
d="M135 507h-88v72q0 23 8 47t28 41t47 23v-30q-36 -16 -34 -68h39v-85z" />
    <glyph glyph-name="quoteright" unicode="&#x2019;" horiz-adv-x="182" 
d="M133 618q0 -47 -22 -75t-59 -36v30q14 6 24 20t10 48h-39v85h86v-72z" />
    <glyph glyph-name="quotesinglbase" unicode="&#x201a;" horiz-adv-x="182" 
d="M133 13q0 -47 -22 -75t-59 -36v29q14 7 24 21.5t10 47.5h-39v85h86v-72z" />
    <glyph glyph-name="quotedblleft" unicode="&#x201c;" horiz-adv-x="312" 
d="M265 507h-86v72q0 47 22 75t59 36v-30q-14 -6 -24 -20.5t-10 -47.5h39v-85zM135 507h-88v72q0 23 8 47t28 41t47 23v-30q-36 -16 -34 -68h39v-85z" />
    <glyph glyph-name="quotedblright" unicode="&#x201d;" horiz-adv-x="312" 
d="M265 618q0 -23 -8 -47t-28 -41t-47 -23v30q36 16 34 68h-38v85h87v-72zM133 618q0 -47 -22 -75t-59 -36v30q14 6 24 20t10 48h-39v85h86v-72z" />
    <glyph glyph-name="quotedblbase" unicode="&#x201e;" horiz-adv-x="312" 
d="M265 13q0 -23 -8 -47t-28 -41t-47 -23v29q36 17 34 69h-38v85h87v-72zM133 13q0 -47 -22 -75t-59 -36v29q14 7 24 21.5t10 47.5h-39v85h86v-72z" />
    <glyph glyph-name="dagger" unicode="&#x2020;" 
d="M485 408q-3 3 -26 5.5t-52 2.5h-96v-430q0 -65 7 -76h-97q6 13 6 76v430h-96q-18 0 -46 -2t-32 -6v88q3 -2 23.5 -4t49.5 -2h101v127q0 58 -6 73h97q-7 -16 -7 -73v-127h101q18 0 44 1.5t29 4.5v-88z" />
    <glyph glyph-name="daggerdbl" unicode="&#x2021;" 
d="M485 193q-3 3 -25 5t-53 2h-96v-214q0 -65 7 -76h-97q6 13 6 76v214h-96q-20 0 -47 -2t-31 -5v88q4 -3 30 -5t43 -2h101v142h-96q-18 0 -46 -2t-32 -6v88q3 -2 23.5 -4t49.5 -2h101v127q0 58 -6 73h97q-7 -16 -7 -73v-127h101q18 0 44 1.5t29 4.5v-88q-3 3 -26 5.5
t-52 2.5h-96v-142h101q17 0 43 2t30 5v-88z" />
    <glyph glyph-name="bullet" unicode="&#x2022;" horiz-adv-x="350" 
d="M296 350q0 -23 -12 -51.5t-42.5 -49t-66.5 -20.5q-23 0 -51.5 12t-49 42.5t-20.5 66.5q0 31 16 60.5t45 45t59 15.5q51 0 86.5 -35t35.5 -86z" />
    <glyph glyph-name="ellipsis" unicode="&#x2026;" horiz-adv-x="663" 
d="M596 0h-87v85h87v-85zM375 0h-87v85h87v-85zM154 0h-86v85h86v-85z" />
    <glyph glyph-name="perthousand" unicode="&#x2030;" horiz-adv-x="1335" 
d="M865 158q0 -52 -22.5 -90t-66 -61t-106.5 -23q-52 0 -99 20t-72 61.5t-25 92.5q0 86 52.5 130t143.5 44q90 0 142.5 -44t52.5 -130zM674 690l-377 -690h-67l374 690h70zM428 532q0 -42 -14.5 -75t-41 -55t-62.5 -33.5t-77 -11.5q-63 0 -107 24t-66.5 62t-22.5 89
q0 54 21.5 91.5t64.5 59.5t110 22q90 0 142.5 -44t52.5 -129zM787 158q0 39 -18 68t-45.5 39.5t-52.5 10.5t-53.5 -10.5t-47 -39t-18.5 -68.5q0 -55 32 -86.5t87 -31.5q40 0 68 18t38 46t10 54zM350 532q0 39 -18 67.5t-45.5 39t-52.5 10.5q-40 0 -69 -18t-39.5 -46
t-10.5 -53q0 -41 18.5 -69.5t46.5 -39t54 -10.5q54 0 85 32t31 87zM1298 158q0 -52 -22.5 -90t-66 -61t-107.5 -23q-52 0 -99 20t-72 61.5t-25 92.5q0 86 53 130t143 44q91 0 143.5 -44t52.5 -130zM1220 158q0 25 -10.5 53t-39.5 46.5t-68 18.5q-25 0 -53 -10.5t-46.5 -39
t-18.5 -68.5q0 -26 10.5 -54t39.5 -46t68 -18q54 0 86 32t32 86z" />
    <glyph glyph-name="guilsinglleft" unicode="&#x2039;" horiz-adv-x="311" 
d="M249 144l-64 -49q-6 17 -29 48l-98 129l98 130q23 31 29 48l64 -50q-16 -10 -40 -40l-66 -88l66 -87q24 -30 40 -41z" />
    <glyph glyph-name="guilsinglright" unicode="&#x203a;" horiz-adv-x="311" 
d="M253 272l-98 -129q-24 -31 -29 -48l-64 49q17 11 39 41l67 87l-67 88q-22 30 -39 40l64 50q5 -17 29 -48z" />
    <glyph glyph-name="fraction" unicode="&#x2044;" horiz-adv-x="182" 
d="M363 690l-467 -690h-78l465 690h80z" />
    <glyph glyph-name="uni2080" unicode="&#x2080;" horiz-adv-x="411" 
d="M369 199q0 -212 -163 -212q-82 0 -123 51.5t-41 160.5t41 160.5t123 51.5q163 0 163 -212zM296 200q0 91 -22.5 122.5t-67.5 31.5q-32 0 -51.5 -14t-29.5 -43t-10 -98q0 -82 14 -109.5t33.5 -37t43.5 -9.5q41 0 64 27q26 31 26 130z" />
    <glyph glyph-name="uni2081" unicode="&#x2081;" horiz-adv-x="411" 
d="M257 0h-70v329q-18 -13 -39 -21.5t-58 -13.5v66q57 7 97 39h70v-399z" />
    <glyph glyph-name="uni2082" unicode="&#x2082;" horiz-adv-x="411" 
d="M349 286q0 -49 -53.5 -108.5t-143.5 -119.5h132q42 0 55 4v-62h-279v66q76 47 129 94.5t70.5 78.5t17.5 51q0 31 -24 49t-60 18q-32 0 -65 -13t-50 -37v84q74 21 118 21q42 0 78.5 -12.5t55.5 -42.5t19 -71z" />
    <glyph glyph-name="uni2083" unicode="&#x2083;" horiz-adv-x="411" 
d="M346 121q0 -35 -18 -64t-49 -47q-40 -23 -93 -23q-50 0 -120 24v74q27 -24 57 -33.5t68 -9.5q36 0 58 21t22 56q0 64 -87 64l-39 -1v57l27 -1q26 0 48.5 8t32 23t9.5 31q0 57 -68 57q-36 0 -63.5 -9t-55.5 -33v75q63 21 122 21q39 0 73 -14t48 -38.5t14 -51.5
q0 -29 -16.5 -53t-44.5 -37q33 -8 54 -34t21 -62z" />
    <glyph glyph-name="uni2084" unicode="&#x2084;" horiz-adv-x="411" 
d="M369 94q-16 4 -42 4h-25v-47q0 -38 5 -51h-80q6 10 6 51v47h-191v68l173 233h87v-245h24q30 0 43 6v-66zM233 154v168l-122 -168h122z" />
    <glyph glyph-name="uni2085" unicode="&#x2085;" horiz-adv-x="411" 
d="M344 130q0 -38 -23.5 -72.5t-65.5 -52.5t-84 -18q-54 0 -104 18v71q14 -12 42 -22.5t59 -10.5q49 0 76 23t27 66q0 33 -22.5 50.5t-63.5 17.5q-51 0 -111 -16l29 215h217v-66q-17 8 -61 8h-95q-11 -65 -13 -90q40 5 51 5q68 0 105 -32t37 -94z" />
    <glyph glyph-name="uni2086" unicode="&#x2086;" horiz-adv-x="411" 
d="M356 128q0 -63 -42.5 -102t-107.5 -39q-28 0 -56.5 9t-49.5 27.5t-32.5 44.5t-11.5 58q0 39 14 75q12 33 43 84t82 114h97q-23 -17 -58 -57.5t-66 -90.5q23 9 51 9q27 0 60 -12t55 -43.5t22 -76.5zM286 125q0 40 -20.5 62t-59.5 22q-40 0 -60 -22.5t-20 -61.5t19.5 -61.5
t57.5 -22.5q40 0 61.5 22.5t21.5 61.5z" />
    <glyph glyph-name="uni2087" unicode="&#x2087;" horiz-adv-x="411" 
d="M339 337q-28 -45 -64 -115.5t-61 -127t-27 -82.5l-2 -12h-81q33 87 76 177t87 163h-134q-42 0 -62 -8v67h268v-62z" />
    <glyph glyph-name="uni2088" unicode="&#x2088;" horiz-adv-x="411" 
d="M362 111q0 -45 -27.5 -74.5t-64 -39.5t-64.5 -10t-64.5 10t-64 39.5t-27.5 74.5q0 37 17.5 65t53.5 40q-25 13 -39.5 37t-14.5 54q0 27 14.5 51.5t50 38.5t74.5 14q24 0 56 -8t57 -32t25 -64q0 -30 -14.5 -53.5t-39.5 -37.5q36 -12 54 -40t18 -65zM277 299q0 27 -21 42.5
t-50 15.5t-50 -16t-21 -43q0 -13 7 -27.5t25 -23t39 -8.5q29 0 50 17t21 43zM290 112q0 37 -23 55t-62 18q-83 0 -83 -74q0 -26 14 -42.5t33.5 -22t36.5 -5.5q36 0 60 18t24 53z" />
    <glyph glyph-name="uni2089" unicode="&#x2089;" horiz-adv-x="411" 
d="M356 271q0 -38 -15 -76q-25 -70 -124 -195h-98q32 22 68 66t56 79q-20 -8 -49 -8q-28 0 -61 11.5t-55 43.5t-22 77q0 63 43.5 102.5t107.5 39.5t106.5 -38.5t42.5 -101.5zM286 272q0 38 -19.5 61.5t-57.5 23.5q-40 0 -61.5 -22.5t-21.5 -62.5q0 -39 20.5 -62t60.5 -23
q38 0 58.5 23t20.5 62z" />
    <glyph glyph-name="Euro" unicode="&#x20ac;" horiz-adv-x="599" 
d="M422 329l-12 -56h-222q15 -72 45.5 -120t73.5 -72.5t99 -24.5q32 0 66 11t86 49v-92q-40 -23 -79 -33.5t-89 -10.5q-44 0 -91 14.5t-88 49.5t-72.5 92t-45.5 137h-84l11 56h65l-1 45v19h-75l11 56h68q9 60 31.5 108.5t58 82t84.5 51.5t108 18q95 0 189 -41v-93
q-33 26 -82 43t-94 17q-177 0 -201 -186h266l-12 -56h-257v-5l2 -59h241z" />
    <glyph glyph-name="trademark" unicode="&#x2122;" horiz-adv-x="807" 
d="M737 366h-66q2 16 2 38q-1 24 -11 193q-67 -186 -80 -231h-64q-16 51 -45 130.5t-36 100.5l-11 -207q0 -17 2 -24h-63q4 16 6 42q13 155 15 199t2 73v10h77l14 -41l71 -210q24 60 40 106q31 90 45 145h79q0 -24 2 -67.5t7.5 -125.5t6.5 -90q1 -25 7 -41zM335 634
q-40 5 -48 5h-58v-214q0 -25 1 -37.5t6 -21.5h-69q5 23 5 54v219h-67q-15 0 -38 -5v56h268v-56z" />
    <glyph glyph-name="onethird" unicode="&#x2153;" horiz-adv-x="882" 
d="M667 690l-467 -690h-77l465 690h79zM213 291h-70v328q-7 -5 -27 -16.5t-70 -17.5v65q58 5 97 40h70v-399zM809 121q0 -35 -18 -64t-49 -47q-40 -23 -93 -23q-50 0 -120 24v74q27 -24 57 -33.5t68 -9.5q36 0 58 21t22 56q0 64 -87 64l-39 -1v57l27 -1q26 0 48.5 8t32 23
t9.5 31q0 57 -68 57q-36 0 -63.5 -9t-55.5 -33v75q63 21 122 21q39 0 73 -14t48 -38.5t14 -51.5q0 -29 -16.5 -53t-44.5 -37q33 -8 54 -34t21 -62z" />
    <glyph glyph-name="twothirds" unicode="&#x2154;" horiz-adv-x="968" 
d="M763 690l-467 -690h-77l465 690h79zM350 577q0 -49 -54.5 -109.5t-142.5 -118.5h132q42 0 55 4v-62h-279v65q95 61 156 120.5t61 103.5q0 31 -24.5 49.5t-60.5 18.5q-22 0 -47 -7t-42 -19.5t-25 -24.5v84q78 22 118 22q70 0 111.5 -31t41.5 -95zM895 121q0 -35 -18 -64
t-49 -47q-40 -23 -93 -23q-50 0 -120 24v74q27 -24 57 -33.5t68 -9.5q36 0 58 21t22 56q0 64 -87 64l-39 -1v57l27 -1q26 0 48.5 8t32 23t9.5 31q0 57 -68 57q-36 0 -63.5 -9t-55.5 -33v75q63 21 122 21q39 0 73 -14t48 -38.5t14 -51.5q0 -29 -16.5 -53t-44.5 -37
q33 -8 54 -34t21 -62z" />
    <glyph glyph-name="oneeighth" unicode="&#x215b;" horiz-adv-x="898" 
d="M667 690l-467 -690h-77l465 690h79zM213 291h-70v328q-7 -5 -27 -16.5t-70 -17.5v65q58 5 97 40h70v-399zM825 111q0 -45 -27.5 -74.5t-64.5 -39.5t-65 -10q-44 0 -80 16t-56 43t-20 65q0 37 17.5 65t53.5 40q-25 13 -39 37t-14 54q0 27 14.5 51.5t49.5 38.5t74 14
q24 0 56.5 -8t57.5 -32t25 -64q0 -30 -14.5 -53.5t-40.5 -37.5q36 -12 54.5 -40t18.5 -65zM740 299q0 27 -21.5 42.5t-50.5 15.5t-50 -16t-21 -43t21 -43t50 -16t50.5 17t21.5 43zM752 112q0 37 -23 55t-62 18t-60.5 -18.5t-21.5 -55.5q0 -34 23.5 -52t59.5 -18
q37 0 60.5 18t23.5 53z" />
    <glyph glyph-name="threeeighths" unicode="&#x215c;" horiz-adv-x="946" 
d="M731 690l-467 -690h-78l465 690h80zM874 111q0 -45 -27.5 -74.5t-64.5 -39.5t-65 -10q-44 0 -80 16t-56 43t-20 65q0 37 17.5 65t53.5 40q-25 13 -39 37t-14 54q0 27 14.5 51.5t49.5 38.5t74 14q24 0 56.5 -8t57.5 -32t25 -64q0 -30 -14.5 -53.5t-40.5 -37.5
q36 -12 54.5 -40t18.5 -65zM789 299q0 27 -21.5 42.5t-50.5 15.5t-50 -16t-21 -43t21 -43t50 -16t50.5 17t21.5 43zM801 112q0 37 -23 55t-62 18t-60.5 -18.5t-21.5 -55.5q0 -34 23.5 -52t59.5 -18q37 0 60.5 18t23.5 53zM346 413q0 -35 -18 -64t-49 -47q-40 -23 -93 -23
q-50 0 -120 24v74q27 -24 57 -33.5t68 -9.5q36 0 58 21t22 56q0 64 -87 64l-39 -1v57l27 -1q26 0 48.5 8t32 23t9.5 31q0 57 -68 57q-36 0 -63.5 -9t-55.5 -33v75q63 21 122 21q39 0 73 -14t48 -38.5t14 -51.5q0 -29 -16.5 -53t-44.5 -37q33 -8 54 -34t21 -62z" />
    <glyph glyph-name="fiveeighths" unicode="&#x215d;" horiz-adv-x="945" 
d="M730 690l-467 -690h-78l465 690h80zM344 422q0 -25 -11.5 -53.5t-41 -50t-64 -30.5t-66.5 -9q-50 0 -94 18v71q14 -13 41 -23t60 -10q48 0 75.5 23.5t27.5 65.5q0 32 -23.5 50t-63.5 18q-50 0 -111 -16q11 71 29 215h218v-67q-17 9 -61 9h-96l-13 -90q40 5 52 5
q67 0 104.5 -32t37.5 -94zM872 111q0 -45 -27.5 -74.5t-64.5 -39.5t-65 -10q-44 0 -80 16t-56 43t-20 65q0 37 17.5 65t53.5 40q-25 13 -39 37t-14 54q0 27 14.5 51.5t49.5 38.5t74 14q24 0 56.5 -8t57.5 -32t25 -64q0 -30 -14.5 -53.5t-40.5 -37.5q36 -12 54.5 -40
t18.5 -65zM787 299q0 27 -21.5 42.5t-50.5 15.5t-50 -16t-21 -43t21 -43t50 -16t50.5 17t21.5 43zM799 112q0 37 -23 55t-62 18t-60.5 -18.5t-21.5 -55.5q0 -34 23.5 -52t59.5 -18q37 0 60.5 18t23.5 53z" />
    <glyph glyph-name="seveneighths" unicode="&#x215e;" horiz-adv-x="904" 
d="M674 690l-467 -690h-78l465 690h80zM337 628q-41 -67 -95.5 -176.5t-57.5 -149.5l-1 -11h-82q69 184 164 340h-134q-44 0 -62 -9v68h268v-62zM831 111q0 -45 -27.5 -74.5t-64.5 -39.5t-65 -10q-44 0 -80 16t-56 43t-20 65q0 37 17.5 65t53.5 40q-25 13 -39 37t-14 54
q0 27 14.5 51.5t49.5 38.5t74 14q24 0 56.5 -8t57.5 -32t25 -64q0 -30 -14.5 -53.5t-40.5 -37.5q36 -12 54.5 -40t18.5 -65zM746 299q0 27 -21.5 42.5t-50.5 15.5t-50 -16t-21 -43t21 -43t50 -16t50.5 17t21.5 43zM758 112q0 37 -23 55t-62 18t-60.5 -18.5t-21.5 -55.5
q0 -34 23.5 -52t59.5 -18q37 0 60.5 18t23.5 53z" />
    <glyph glyph-name="minus" unicode="&#x2212;" horiz-adv-x="646" 
d="M564 226q-3 3 -25.5 5.5t-48.5 2.5h-334q-16 0 -43 -2.5t-31 -5.5v89q3 -2 23 -4t46 -2h345q16 0 40.5 1.5t27.5 4.5v-89z" />
    <glyph glyph-name="approxequal" unicode="&#x2248;" horiz-adv-x="646" 
d="M571 364q-6 -5 -29 -23.5t-40.5 -29.5t-38.5 -17t-46 -6q-12 0 -33 5t-68.5 31.5t-68.5 34t-39 7.5q-25 0 -51 -16t-47 -37l-35 54q5 4 25 20.5t36.5 27t33.5 17t31.5 8.5t26.5 2t33 -5t68.5 -31.5t69 -33.5t39.5 -7q25 0 51 16t47 37zM571 175q-7 -5 -27 -21t-35 -26
t-28.5 -15.5t-29 -9t-34.5 -3.5q-12 0 -33 5t-68.5 31.5t-68.5 34t-39 7.5q-25 0 -51 -16t-47 -37l-35 54q5 4 25.5 20.5t39 28.5t38.5 18t32.5 7t17.5 1q12 0 33 -5t68.5 -31.5t69 -33.5t39.5 -7q25 0 51.5 16t46.5 36z" />
    <glyph glyph-name="notequal" unicode="&#x2260;" horiz-adv-x="646" 
d="M512 530l-69 -122h52q16 0 41 1.5t28 4.5v-89q-3 3 -25.5 5.5t-48.5 2.5h-88l-70 -123h163q16 0 41 1.5t28 4.5v-89q-3 3 -25.5 5.5t-48.5 2.5h-200l-74 -131h-83l74 131h-51q-16 0 -43 -2.5t-31 -5.5v89q3 -2 23 -4t46 -2h98l70 123h-163q-16 0 -43 -2.5t-31 -5.5v89
q3 -2 23 -4t46 -2h210l69 122h82z" />
    <glyph glyph-name="lessequal" unicode="&#x2264;" horiz-adv-x="646" 
d="M543 198l-36 -81q-2 8 -59 33l-350 146v56l350 147q1 0 19.5 8.5t28.5 14.5t11 9l36 -81h-3q-7 0 -30.5 -8t-36.5 -14q-23 -8 -248 -103l248 -105q12 -6 36 -14t31 -8h3zM564 15q-4 3 -31.5 5.5t-42.5 2.5h-334q-16 0 -43.5 -2.5t-30.5 -5.5v89q2 -2 22 -4t46 -2h345
q16 0 41 1.5t28 4.5v-89z" />
    <glyph glyph-name="greaterequal" unicode="&#x2265;" horiz-adv-x="646" 
d="M547 296l-350 -146q-57 -25 -59 -33l-35 81h2q6 0 26.5 6.5t41.5 15.5l247 105l-247 103q-12 6 -36 14t-33 8h-2l36 81q2 -7 59 -32l350 -147v-56zM564 15q-4 3 -31.5 5.5t-42.5 2.5h-334q-16 0 -43.5 -2.5t-30.5 -5.5v89q2 -2 22 -4t46 -2h345q16 0 41 1.5t28 4.5v-89z
" />
    <glyph glyph-name="uniE000" unicode="&#xe000;" horiz-adv-x="585" 
d="M522 507q-6 -30 -6 -84v-423q0 -87 -24 -137.5t-70 -75t-120 -24.5q-92 0 -215 53v98q40 -33 95 -52.5t112 -19.5q47 0 79 11.5t47 41.5t15 105v33q-59 -42 -145 -42q-121 0 -187 65t-66 187q0 53 16.5 102.5t49 88t81 61t107.5 22.5q87 0 146 -48l8 38h77zM433 121v165
q0 66 -11 91q-14 34 -51 51.5t-80 17.5q-53 0 -89 -24t-56.5 -68.5t-20.5 -106.5q0 -47 16.5 -91t56 -69t93.5 -25q86 0 142 59z" />
    <glyph glyph-name="uniE001" unicode="&#xe001;" horiz-adv-x="585" 
d="M522 507q-6 -30 -6 -84v-423q0 -87 -24 -137.5t-70 -75t-120 -24.5q-92 0 -215 53v98q40 -33 95 -52.5t112 -19.5q47 0 79 11.5t47 41.5t15 105v33q-59 -42 -145 -42q-121 0 -187 65t-66 187q0 53 16.5 102.5t49 88t81 61t107.5 22.5q87 0 146 -48l8 38h77zM433 121v165
q0 66 -11 91q-14 34 -51 51.5t-80 17.5q-53 0 -89 -24t-56.5 -68.5t-20.5 -106.5q0 -47 16.5 -91t56 -69t93.5 -25q86 0 142 59zM456 631l-42 -53l-140 102l-114 -100l-32 35l161 142z" />
    <glyph glyph-name="uniE002" unicode="&#xe002;" horiz-adv-x="585" 
d="M522 507q-6 -30 -6 -84v-423q0 -87 -24 -137.5t-70 -75t-120 -24.5q-92 0 -215 53v98q40 -33 95 -52.5t112 -19.5q47 0 79 11.5t47 41.5t15 105v33q-59 -42 -145 -42q-121 0 -187 65t-66 187q0 53 16.5 102.5t49 88t81 61t107.5 22.5q87 0 146 -48l8 38h77zM433 121v165
q0 66 -11 91q-14 34 -51 51.5t-80 17.5q-53 0 -89 -24t-56.5 -68.5t-20.5 -106.5q0 -47 16.5 -91t56 -69t93.5 -25q86 0 142 59zM442 710q-13 -38 -29.5 -65t-46 -45t-74.5 -18q-53 0 -89 28t-61 100l34 14q18 -42 46.5 -59t69.5 -17t70.5 17.5t45.5 58.5z" />
    <glyph glyph-name="uniE003" unicode="&#xe003;" horiz-adv-x="585" 
d="M522 507q-6 -30 -6 -84v-423q0 -87 -24 -137.5t-70 -75t-120 -24.5q-92 0 -215 53v98q40 -33 95 -52.5t112 -19.5q47 0 79 11.5t47 41.5t15 105v33q-59 -42 -145 -42q-121 0 -187 65t-66 187q0 53 16.5 102.5t49 88t81 61t107.5 22.5q87 0 146 -48l8 38h77zM433 121v165
q0 66 -11 91q-14 34 -51 51.5t-80 17.5q-53 0 -89 -24t-56.5 -68.5t-20.5 -106.5q0 -47 16.5 -91t56 -69t93.5 -25q86 0 142 59zM340 654q0 -21 -15 -36t-37 -15t-37 15t-15 36q0 22 15.5 37.5t36.5 15.5t36.5 -15.5t15.5 -37.5z" />
    <glyph glyph-name="uniE004" unicode="&#xe004;" horiz-adv-x="585" 
d="M522 507q-6 -30 -6 -84v-423q0 -87 -24 -137.5t-70 -75t-120 -24.5q-92 0 -215 53v98q40 -33 95 -52.5t112 -19.5q47 0 79 11.5t47 41.5t15 105v33q-59 -42 -145 -42q-121 0 -187 65t-66 187q0 53 16.5 102.5t49 88t81 61t107.5 22.5q87 0 146 -48l8 38h77zM433 121v165
q0 66 -11 91q-14 34 -51 51.5t-80 17.5q-53 0 -89 -24t-56.5 -68.5t-20.5 -106.5q0 -47 16.5 -91t56 -69t93.5 -25q86 0 142 59zM331 577h-84v69q0 34 13 58t32 34.5t35 14.5v-29q-35 -16 -33 -65h37v-82z" />
    <glyph glyph-name="uniE005" unicode="&#xe005;" horiz-adv-x="521" 
d="M225 -121v121q-44 4 -89.5 22t-81.5 40v95q92 -70 171 -84v240l-8 2q-36 7 -69 21t-56 35.5t-35.5 52t-12.5 69.5q0 89 48.5 138.5t132.5 57.5v88h63v-88q18 -2 41 -6.5t113 -34.5v-103q-29 30 -71 50.5t-83 25.5v-225q102 -18 146.5 -63t44.5 -119q0 -45 -14 -82.5
t-39.5 -65t-61 -44.5t-76.5 -22v-121h-63zM387 197q0 23 -9 45.5t-32 37t-58 22.5v-229q45 8 72 41t27 83zM219 411l6 -2v212q-47 -7 -71.5 -35.5t-24.5 -74.5q0 -79 90 -100z" />
    <glyph glyph-name="uniE006" unicode="&#xe006;" horiz-adv-x="599" 
d="M554 344q0 -74 -10.5 -137t-37.5 -114.5t-78.5 -82t-128.5 -30.5q-39 0 -79.5 10t-74.5 37.5t-54.5 66t-34 97t-13.5 153.5q0 74 10.5 137.5t38 115t79.5 82t129 30.5q130 0 192 -90t62 -275zM459 344q0 96 -14 156.5t-36 86.5q-40 48 -111 48t-111 -48q-49 -58 -49 -243
t49 -243q40 -47 111 -47t111 47q22 26 33.5 76.5t14 94.5t2.5 72z" />
    <glyph glyph-name="uniE007" unicode="&#xe007;" horiz-adv-x="435" 
d="M302 0h-92v605q-38 -35 -74 -51.5t-90 -23.5v89q46 4 83 21.5t73 49.5h100v-690z" />
    <glyph glyph-name="uniE008" unicode="&#xe008;" horiz-adv-x="580" 
d="M516 496q0 -54 -38.5 -121t-120 -145t-187.5 -149h252q64 0 77 5v-86h-433v97q105 71 189 148t125 143t41 117q0 47 -24.5 78.5t-60.5 42.5t-65 11q-49 0 -88 -14q-25 -8 -53.5 -21.5t-40.5 -27.5v102q116 34 188 34q53 0 97.5 -12.5t76 -38.5t48.5 -67t17 -96z" />
    <glyph glyph-name="uniE009" unicode="&#xe009;" horiz-adv-x="560" 
d="M498 203q0 -38 -12.5 -77.5t-47 -76t-86 -54t-103.5 -17.5q-85 0 -188 40v95q37 -32 87 -47t105 -15q65 0 107 41t42 105q0 61 -36.5 94.5t-124.5 33.5l-49 -1v84l33 -1q45 0 81 13t56 39.5t20 67.5q0 56 -32.5 83.5t-89.5 27.5q-106 0 -183 -58v95q89 34 187 34
q64 0 110 -19.5t73 -57.5t27 -94q0 -59 -35 -104t-93 -59q71 -7 111.5 -54t40.5 -118z" />
    <glyph glyph-name="uniE00A" unicode="&#xe00a;" horiz-adv-x="618" 
d="M593 172q-15 5 -47 5h-61v-103q0 -62 6 -74h-105q5 14 5 64l1 40v73h-354v96l47 56l224 291q22 28 47 70h129v-434h59q41 1 49 3v-87zM392 256v337l-260 -337h260z" />
    <glyph glyph-name="uniE00B" unicode="&#xe00b;" horiz-adv-x="548" 
d="M494 223q0 -53 -23 -99t-62.5 -78.5t-91 -50t-105.5 -17.5q-36 0 -77.5 7.5t-73.5 20.5v91q26 -19 72 -31t83 -12q85 0 133 45t48 132q0 62 -42 94t-108 32q-84 0 -174 -25l46 358h334v-89q-6 3 -30 5t-57 2h-166l-26 -185q65 8 77.5 9t21.5 1q106 0 163.5 -53t57.5 -157
z" />
    <glyph glyph-name="uniE00C" unicode="&#xe00c;" horiz-adv-x="553" 
d="M512 221q0 -51 -17 -95.5t-49 -77t-76 -50.5t-96 -18q-49 0 -92.5 17.5t-74.5 49.5t-48 75.5t-17 92.5q0 68 21 132q19 56 70 147t129 196h119q-40 -32 -101.5 -123t-94.5 -155q23 18 53 26t56 8q37 0 75 -11t73.5 -41.5t52.5 -77.5t17 -95zM421 214q0 54 -18 90t-50 55
t-77 19q-65 0 -105 -46t-40 -118q0 -41 15.5 -80t49.5 -61t78 -22q45 0 80 20.5t51 59.5t16 83z" />
    <glyph glyph-name="uniE00D" unicode="&#xe00d;" horiz-adv-x="522" 
d="M461 593q-86 -150 -144 -280q-28 -67 -67 -172t-42 -135l-2 -6h-107q75 210 133 339q46 101 141 269h-240q-71 0 -90 -8v90h418v-97z" />
    <glyph glyph-name="uniE00E" unicode="&#xe00e;" horiz-adv-x="592" 
d="M540 187q0 -79 -56 -140q-67 -67 -188 -67q-122 0 -188 67q-56 59 -56 140q0 51 16 89.5t45 62.5t71 35q-49 24 -76 65.5t-27 95.5q0 42 18.5 77.5t51.5 59.5q54 37 145 37q93 0 144 -37q34 -24 52 -59.5t18 -77.5q0 -54 -26.5 -95.5t-76.5 -65.5q67 -17 100 -65.5
t33 -121.5zM423 524q0 28 -13 55t-44 45.5t-70 18.5q-25 0 -55 -11t-51.5 -41t-21.5 -69q0 -52 37 -84t91 -32q39 0 70 18t44 45t13 55zM444 188q0 71 -39 106.5t-110 35.5q-147 0 -147 -144q0 -64 41 -101.5t107 -37.5t107 37.5t41 103.5z" />
    <glyph glyph-name="uniE00F" unicode="&#xe00f;" horiz-adv-x="553" 
d="M511 473q0 -65 -22 -132q-13 -37 -41.5 -93.5t-71.5 -124t-85 -123.5h-118q39 31 100 121t95 156q-22 -16 -52.5 -25t-57.5 -9q-100 0 -159 62.5t-59 162.5q0 51 17 95.5t49 77t76 50.5t96 18q50 0 93 -18t74.5 -50t48.5 -75.5t17 -92.5zM421 475q0 30 -8.5 60.5t-27 53
t-46 35.5t-61.5 13q-45 0 -77 -18.5t-51 -54.5t-19 -89q0 -74 36.5 -119t108.5 -45q66 0 105.5 46t39.5 118z" />
    <glyph glyph-name="uniE010" unicode="&#xe010;" horiz-adv-x="747" 
d="M707 574q-4 4 -51 25q-44 15 -103.5 25.5t-105.5 10.5q-109 0 -176 -45.5t-84 -140.5h351l-12 -56h-344v-8q0 -29 3 -56h326l-12 -56h-302q29 -101 109 -160t196 -59q51 0 108 16t96 42v-88q-45 -24 -103 -35.5t-115 -11.5q-118 0 -210.5 46.5t-142.5 141.5
q-29 51 -40 108h-86l11 56h67l-1 43v21h-77l11 56h73q22 124 112 194t227 70q112 0 275 -42v-97z" />
    <glyph glyph-name="uniE011" unicode="&#xe011;" horiz-adv-x="463" 
d="M460 626q-7 1 -23 5t-31 6.5t-37 2.5q-35 0 -53.5 -20.5t-27.5 -69.5l-14 -76h72q22 0 60 4v-71q-19 3 -59 3h-84l-62 -382q-11 -72 -30.5 -114.5t-57.5 -72t-121 -58.5v85q51 16 71 36t29.5 47.5t19.5 82.5l63 376h-44q-41 0 -59 -3v71q36 -4 59 -4h55l19 92
q16 75 56.5 109t112.5 34q16 0 45 -3t41 -3v-77z" />
    <glyph glyph-name="uniE012" unicode="&#xe012;" horiz-adv-x="567" 
d="M513 24q-63 -37 -169 -37q-45 0 -84 9l-36 -118l-63 19l38 118q-71 32 -110.5 97t-39.5 156q0 59 18 106t52 78.5t81.5 48t105.5 16.5q29 0 52 -4l34 104l60 -21l-29 -91q41 -8 89 -21v-88q-49 32 -111 43l-118 -372q36 -10 79 -10q81 0 151 47v-80zM136 278
q0 -62 23.5 -109.5t64.5 -74.5l113 353h-17q-86 0 -135 -42t-49 -127z" />
    <glyph glyph-name="uniE013" unicode="&#xe013;" horiz-adv-x="478" 
d="M60 328h78q-7 13 -29.5 51.5t-36.5 72t-14 67.5q0 33 11.5 67.5t38.5 62.5t69 46t96 18q62 0 151 -38v-89q-87 58 -155 58q-24 0 -53 -10t-49 -35t-20 -55q0 -23 11 -53t42.5 -84t41.5 -79h114v-60h-98v-6q0 -76 -51 -149q15 -4 62 -27.5t73 -23.5q52 0 119 55v-91
q-70 -38 -126 -38q-45 0 -97.5 25.5t-64 29t-19.5 3.5q-38 0 -42 -46h-78q0 51 28 81.5t80 37.5q31 42 31 101q0 22 -8 48h-105v60z" />
    <glyph glyph-name="uniE014" unicode="&#xe014;" horiz-adv-x="580" 
d="M531 210h-188v-122q0 -71 4 -88h-103q5 11 5 88v122h-188v56h188v27l-17 28h-171v56h138l-155 257q-24 39 -41 56h125q1 -13 28 -62l143 -253l128 246q24 49 28 69h121q-4 -2 -15.5 -19t-26.5 -45q-9 -14 -66.5 -115.5t-76.5 -133.5h140v-56h-172l-16 -29v-26h188v-56z
" />
    <glyph glyph-name="uniF6C3" unicode="&#xf6c3;" 
d="M325 -74l-110 -163l-29 15l68 185z" />
    <glyph glyph-name="uniF730" unicode="&#xf730;" horiz-adv-x="561" 
d="M518 253q0 -51 -14 -98.5t-43 -85.5t-75 -60t-106 -22q-45 0 -88.5 15t-76.5 49.5t-52.5 86t-19.5 115.5q0 79 29.5 138.5t81.5 92.5t126 33q45 0 88.5 -15t77 -49t53 -85t19.5 -115zM426 253q0 197 -146 197q-145 0 -145 -197q0 -198 145 -198q146 0 146 198z" />
    <glyph glyph-name="uniF731" unicode="&#xf731;" horiz-adv-x="342" 
d="M257 0h-87v423q-29 -25 -62 -42t-76 -23v85q73 9 131 64h94v-507z" />
    <glyph glyph-name="uniF732" unicode="&#xf732;" horiz-adv-x="493" 
d="M448 0h-421v79q98 52 130.5 70.5t60.5 38t55.5 42t53 56t25.5 68.5q0 45 -37 70.5t-98 25.5q-48 0 -90.5 -15.5t-75.5 -43.5v101q93 25 172 25q62 0 114 -17t78 -55.5t26 -89.5q0 -56 -43 -108.5t-133 -108.5q-29 -18 -101 -59h210q55 0 74 5v-84z" />
    <glyph glyph-name="uniF733" unicode="&#xf733;" horiz-adv-x="451" 
d="M419 27q0 -35 -11.5 -72t-39.5 -68t-72.5 -51t-104.5 -20q-89 0 -179 40v101q78 -69 173 -69q39 0 72.5 15t50.5 47t17 72q0 46 -17 77t-47 46.5t-66 15.5q-27 0 -54 -4v80l34 -2q58 0 94 26t36 85q0 44 -29.5 72.5t-81.5 28.5q-98 0 -156 -62v98q82 34 165 34
q51 0 96.5 -19t69.5 -59t24 -90q0 -103 -100 -146q60 -14 93 -64t33 -112z" />
    <glyph glyph-name="uniF734" unicode="&#xf734;" horiz-adv-x="520" 
d="M505 23q-17 4 -54 4h-44v-122q0 -54 5 -77h-96q5 24 5 77v122h-305v96q13 15 45 60l183 254q30 40 42 70h121v-405h44q33 0 54 6v-85zM321 102v309q-184 -261 -217 -309h217z" />
    <glyph glyph-name="uniF735" unicode="&#xf735;" horiz-adv-x="463" 
d="M430 59q0 -50 -20.5 -95t-56.5 -78t-83 -51t-97 -18q-32 0 -68 8t-68 22v92q23 -23 63.5 -34.5t76.5 -11.5q79 0 122 46t43 126q0 65 -36.5 99t-103.5 34q-34 0 -76.5 -7t-80.5 -20l46 336h302v-87q-18 7 -81 7h-147l-24 -164q65 9 88 9q100 0 150.5 -56.5t50.5 -156.5z
" />
    <glyph glyph-name="uniF736" unicode="&#xf736;" horiz-adv-x="518" 
d="M475 221q0 -49 -14.5 -91.5t-42 -74.5t-68.5 -50t-91 -18q-45 0 -84.5 16t-68.5 47t-45 76.5t-16 101.5q0 55 21 129.5t70.5 164t108.5 168.5h111q-24 -23 -59.5 -67.5t-72.5 -106t-53 -106.5q19 16 48 25.5t53 9.5q36 0 72.5 -11.5t65.5 -39.5t47 -71.5t18 -101.5z
M388 219q0 158 -129 158q-34 0 -64.5 -15t-46.5 -53t-16 -90q0 -48 14.5 -85.5t42.5 -58t69 -20.5q44 0 74.5 21t43 60t12.5 83z" />
    <glyph glyph-name="uniF737" unicode="&#xf737;" horiz-adv-x="426" 
d="M403 417q-58 -98 -108.5 -205t-83 -209t-46.5 -186h-103q40 160 102.5 305t157.5 305h-223q-68 0 -87 -10v90h391v-90z" />
    <glyph glyph-name="uniF738" unicode="&#xf738;" horiz-adv-x="532" 
d="M489 188q0 -34 -11.5 -69.5t-39 -64.5t-71 -48t-101.5 -19q-46 0 -86.5 13.5t-71.5 39.5t-48 64t-17 84q0 65 30.5 114.5t89.5 71.5q-47 24 -71.5 63.5t-24.5 92.5q0 51 26 94t74 64t99 21t99 -21t74 -64t26 -94q0 -53 -24.5 -92.5t-71.5 -63.5q60 -22 90 -71.5
t30 -114.5zM381 525q0 52 -31 85t-84 33q-39 0 -67 -19t-38 -47t-10 -52q0 -37 17.5 -66t45 -40t52.5 -11t52.5 11t45 40t17.5 66zM400 195q0 64 -36 101.5t-98 37.5t-98.5 -37.5t-36.5 -101.5q0 -65 36.5 -102.5t98.5 -37.5t98 37t36 103z" />
    <glyph glyph-name="uniF739" unicode="&#xf739;" horiz-adv-x="516" 
d="M471 276q0 -94 -51.5 -212t-149.5 -247h-111q51 49 106 130.5t78 143.5q-19 -15 -47.5 -24.5t-52.5 -9.5q-36 0 -72 11.5t-65 39.5t-47 71.5t-18 102.5q0 46 14.5 89t42.5 75.5t68.5 51.5t89.5 19q45 0 85 -16t69 -47t45 -76.5t16 -101.5zM383 283q0 48 -14 86t-42 59
t-70 21q-43 0 -71.5 -20t-42.5 -58t-14 -88q0 -158 127 -158t127 158z" />
    </font>
</defs>
</svg>
